23
фев
2019

VA - Whole Lotta Shakin' - SUN Records 60 Essential Recordings (3CD) [2018, Rock 'N' Roll, FLAC]

VA - Whole Lotta Shakin' - SUN Records 60 Essential Recordings (3CD)
Формат: FLAC, (image + .cue), lossless
Год выпуска: 2018
Страна: All World
Жанр: Rock 'N' Roll
Продолжительность: 02:29:04
Описание:
CD1 00

01. Elvis Presley - That's All Right [1954]
02. Jerry Lee Lewis - Whole Lotta Shakin' Goin' On [1957]
03. Johnny Cash - I Walk The Line [1958]
04. Roy Orbison - Ooby Dooby [1956]
05. Carl Perkins - Honey Don't [1958]
06. Billy Riley & His Little Green Men - Flyin' Saucers Rock'n'roll [1957]
07. Rufus 'Hound Dog' Thomas Jr. - Bear Cat [1953]
08. Joe Hill Louis - We All Gotta Go Sometime [1953]
09. Little Junior's Blue Flames - Love My Baby [1953]
10. Little Milton - Beggin' My Baby [1953]
11. Hardrock Gunter - Gonna Dance All Night [1954]
12. Elvis Presley - Blue Moon Of Kentucky [1954]
13. Jerry Lee Lewis - Crazy Arms [1956]
14. Billy 'the Kid' Emerson - When It Rains It Pours [1955]
15. Sammy Lewis / Willie Johnson Combo - I Feel So Worried [1955]
16. Roy Orbison - You're My Baby [1958]
17. Johnny Cash - Hey Porter [1955]
18. Carl Perkins - Gone Gone Gone [1955]
19. Warren Smith - Rock'n'roll Ruby [1956]
20. Sonny Burgess - Red Headed Woman [1956]
eac
Exact Audio Copy V1.0 beta 6 from 9. April 2015

EAC extraction logfile from 22. February 2019, 14:10

Various Artists / Whole Lotta Shakin' - Sun Records [Disc 1]

Used drive : ATAPI iHAS122 C Adapter: 1 ID: 0

Read mode : Secure
Utilize accurate stream : Yes
Defeat audio cache : Yes
Make use of C2 pointers : No

Read offset correction : 6
Overread into Lead-In and Lead-Out : No
Fill up missing offset samples with silence : Yes
Delete leading and trailing silent blocks : No
Null samples used in CRC calculations : Yes
Used interface : Native Win32 interface for Win NT & 2000

Used output format : Internal WAV Routines
Sample format : 44.100 Hz; 16 Bit; Stereo

TOC of the extracted CD

Track | Start | Length | Start sector | End sector
---------------------------------------------------------
1 | 0:00.00 | 1:56.68 | 0 | 8767
2 | 1:56.68 | 2:52.57 | 8768 | 21724
3 | 4:49.50 | 2:44.43 | 21725 | 34067
4 | 7:34.18 | 2:12.60 | 34068 | 44027
5 | 9:47.03 | 2:52.01 | 44028 | 56928
6 | 12:39.04 | 2:03.38 | 56929 | 66191
7 | 14:42.42 | 2:49.66 | 66192 | 78932
8 | 17:32.33 | 2:36.51 | 78933 | 90683
9 | 20:09.09 | 2:35.42 | 90684 | 102350
10 | 22:44.51 | 2:24.17 | 102351 | 113167
11 | 25:08.68 | 2:18.29 | 113168 | 123546
12 | 27:27.22 | 2:05.22 | 123547 | 132943
13 | 29:32.44 | 2:44.40 | 132944 | 145283
14 | 32:17.09 | 3:05.74 | 145284 | 159232
15 | 35:23.08 | 2:35.26 | 159233 | 170883
16 | 37:58.34 | 2:07.70 | 170884 | 180478
17 | 40:06.29 | 2:15.08 | 180479 | 190611
18 | 42:21.37 | 2:41.30 | 190612 | 202716
19 | 45:02.67 | 2:52.21 | 202717 | 215637
20 | 47:55.13 | 2:09.39 | 215638 | 225351

Range status and errors

Selected range

Filename C:UsersLondonDesktopVarious Artists - Whole Lotta Shakin' - Sun Records [Disc 1].wav

Peak level 100.0 %
Extraction speed 8.4 X
Range quality 100.0 %
Test CRC 0221B6B0
Copy CRC 0221B6B0
Copy OK

No errors occurred

AccurateRip summary

Track 1 not present in database
Track 2 not present in database
Track 3 not present in database
Track 4 not present in database
Track 5 not present in database
Track 6 not present in database
Track 7 not present in database
Track 8 not present in database
Track 9 not present in database
Track 10 not present in database
Track 11 not present in database
Track 12 not present in database
Track 13 not present in database
Track 14 not present in database
Track 15 not present in database
Track 16 not present in database
Track 17 not present in database
Track 18 not present in database
Track 19 not present in database
Track 20 not present in database

None of the tracks are present in the AccurateRip database

End of status report

---- CUETools DB Plugin V2.1.6

[CTDB TOCID: XmWwWzRSP4aWZS.4IGxa8rkfIOA-] found
Submit result: already submitted
Track | CTDB Status
1 | (1/1) Accurately ripped
2 | (1/1) Accurately ripped
3 | (1/1) Accurately ripped
4 | (1/1) Accurately ripped
5 | (1/1) Accurately ripped
6 | (1/1) Accurately ripped
7 | (1/1) Accurately ripped
8 | (1/1) Accurately ripped
9 | (1/1) Accurately ripped
10 | (1/1) Accurately ripped
11 | (1/1) Accurately ripped
12 | (1/1) Accurately ripped
13 | (1/1) Accurately ripped
14 | (1/1) Accurately ripped
15 | (1/1) Accurately ripped
16 | (1/1) Accurately ripped
17 | (1/1) Accurately ripped
18 | (1/1) Accurately ripped
19 | (1/1) Accurately ripped
20 | (1/1) Accurately ripped

==== Log checksum A4B4022B4D73D17D6A7E6C61210CF885F729B0FD835246E98752B0095165A48C ====
CD2 00

01. Carl Perkins - Blue Suede Shoes [1956]
02. Johnny Cash - Folsom Prison Blues [1957]
03. Elvis Presley - Mystery Train [1955]
04. Jerry Lee Lewis - High School Confidential [1958]
05. Warren Smith - Ubangi Stomp [1956]
06. Roy Orbison - Rockhouse [1956]
07. Barbara Pittman - I Need A Man [1956]
08. Willie Nix - Bakershop Boogie [1953]
09. Jimmy Deberry - Take A Little Chance [1953]
10. Doctor Ross - Come Back Baby [1953]
11. Little Milton - Somebody Told Me [1953]
12. James Cotton - Cotton Crop Blues [1954]
13. Elvis Presley - Good Rockin' Tonight [1954]
14. Charlie Feathers - Defrost Your Heart [1955]
15. Johnny Cash - Get Rhythm [1956]
16. Carl Perkins - Boppin' The Blues [1956]
17. Jerry Lee Lewis - You Win Again [1957]
18. Malcolm Yelvington - It's Me, Baby [1956]
19. Sonny Burgess - Ain't Got A Thing [1957]
20. Tommy Blake - Flat Foot Sam [1957]
eac
Exact Audio Copy V1.0 beta 6 from 9. April 2015

EAC extraction logfile from 22. February 2019, 14:30

Various Artists / Whole Lotta Shakin' - Sun Records [Disc 2]

Used drive : ATAPI iHAS122 C Adapter: 1 ID: 0

Read mode : Secure
Utilize accurate stream : Yes
Defeat audio cache : Yes
Make use of C2 pointers : No

Read offset correction : 6
Overread into Lead-In and Lead-Out : No
Fill up missing offset samples with silence : Yes
Delete leading and trailing silent blocks : No
Null samples used in CRC calculations : Yes
Used interface : Native Win32 interface for Win NT & 2000

Used output format : Internal WAV Routines
Sample format : 44.100 Hz; 16 Bit; Stereo

TOC of the extracted CD

Track | Start | Length | Start sector | End sector
---------------------------------------------------------
1 | 0:00.00 | 2:17.64 | 0 | 10338
2 | 2:17.64 | 2:49.17 | 10339 | 23030
3 | 5:07.06 | 2:26.25 | 23031 | 34005
4 | 7:33.31 | 2:31.46 | 34006 | 45376
5 | 10:05.02 | 2:01.03 | 45377 | 54454
6 | 12:06.05 | 2:06.51 | 54455 | 63955
7 | 14:12.56 | 2:54.12 | 63956 | 77017
8 | 17:06.68 | 2:41.14 | 77018 | 89106
9 | 19:48.07 | 2:19.23 | 89107 | 99554
10 | 22:07.30 | 2:50.30 | 99555 | 112334
11 | 24:57.60 | 2:58.61 | 112335 | 125745
12 | 27:56.46 | 3:03.03 | 125746 | 139473
13 | 30:59.49 | 2:16.06 | 139474 | 149679
14 | 33:15.55 | 2:33.10 | 149680 | 161164
15 | 35:48.65 | 2:14.22 | 161165 | 171236
16 | 38:03.12 | 2:51.43 | 171237 | 184104
17 | 40:54.55 | 2:55.40 | 184105 | 197269
18 | 43:50.20 | 2:25.69 | 197270 | 208213
19 | 46:16.14 | 2:07.30 | 208214 | 217768
20 | 48:23.44 | 2:01.34 | 217769 | 226877

Range status and errors

Selected range

Filename C:UsersLondonDesktopVarious Artists - Whole Lotta Shakin' - Sun Records [Disc 2].wav

Peak level 100.0 %
Extraction speed 8.4 X
Range quality 100.0 %
Test CRC B955282F
Copy CRC B955282F
Copy OK

No errors occurred

AccurateRip summary

Track 1 not present in database
Track 2 not present in database
Track 3 not present in database
Track 4 not present in database
Track 5 not present in database
Track 6 not present in database
Track 7 not present in database
Track 8 not present in database
Track 9 not present in database
Track 10 not present in database
Track 11 not present in database
Track 12 not present in database
Track 13 not present in database
Track 14 not present in database
Track 15 not present in database
Track 16 not present in database
Track 17 not present in database
Track 18 not present in database
Track 19 not present in database
Track 20 not present in database

None of the tracks are present in the AccurateRip database

End of status report

---- CUETools DB Plugin V2.1.6

[CTDB TOCID: ijWPtlMJbN4CgOgkkEYq3qw5XnQ-] found
Submit result: already submitted
Track | CTDB Status
1 | (1/1) Accurately ripped
2 | (1/1) Accurately ripped
3 | (1/1) Accurately ripped
4 | (1/1) Accurately ripped
5 | (1/1) Accurately ripped
6 | (1/1) Accurately ripped
7 | (1/1) Accurately ripped
8 | (1/1) Accurately ripped
9 | (1/1) Accurately ripped
10 | (1/1) Accurately ripped
11 | (1/1) Accurately ripped
12 | (1/1) Accurately ripped
13 | (1/1) Accurately ripped
14 | (1/1) Accurately ripped
15 | (1/1) Accurately ripped
16 | (1/1) Accurately ripped
17 | (1/1) Accurately ripped
18 | (1/1) Accurately ripped
19 | (1/1) Accurately ripped
20 | (1/1) Accurately ripped

==== Log checksum 3C75B2FAA3832FC95EB2FCA545EE83277A40D4AE1E027EDC7E501E85678113FB ====
CD3 00

01. Jerry Lee Lewis - Great Balls Of Fire [1957]
02. Elvis Presley - I'm Left You're Right She's Gone [1954]
03. Bill Justis - Raunchy [1958]
04. Billy Riley & The Little Green Men - Red Hot [1957]
05. Carl Perkins - Matchbox [1957]
06. Roy Orbison And The Teen Kings - Go!go!go! [1956]
07. Charlie Rich - Lonely Weekends [1959]
08. Jimmy & Walter - Easy [1953]
09. Little Junior's Blue Fames - Feelin' Good [1953]
10. Rufus Thomas - Tiger Man (King Of The Jungle) [1953]
11. Jerry Lee Lewis - Breathless [1958]
12. Little Milton - If You Love Me Baby [1954]
13. The Prisonaires - What'll You Do Next? [1956]
14. Johnny Cash - Train Of Love [1954]
15. Malcolm Yelvington - Drinkin' Wine Spo Dee O Dee [1954]
16. Elvis Presley - Baby Let's Play House [1956]
17. Carl Perkins - Dixie Fried [1956]
18. Ray Harris - Come On Little Mama [1956]
19. Warren Smith - Miss Froggie [1957]
20. Jerry Lee Lewis - It'll Be Me [1957]

eac
Exact Audio Copy V1.0 beta 6 from 9. April 2015

EAC extraction logfile from 22. February 2019, 14:47

Various Artists / Whole Lotta Shakin' - Sun Records [Disc 3]

Used drive : ATAPI iHAS122 C Adapter: 1 ID: 0

Read mode : Secure
Utilize accurate stream : Yes
Defeat audio cache : Yes
Make use of C2 pointers : No

Read offset correction : 6
Overread into Lead-In and Lead-Out : No
Fill up missing offset samples with silence : Yes
Delete leading and trailing silent blocks : No
Null samples used in CRC calculations : Yes
Used interface : Native Win32 interface for Win NT & 2000

Used output format : Internal WAV Routines
Sample format : 44.100 Hz; 16 Bit; Stereo

TOC of the extracted CD

Track | Start | Length | Start sector | End sector
---------------------------------------------------------
1 | 0:00.00 | 1:51.65 | 0 | 8389
2 | 1:51.65 | 2:39.17 | 8390 | 20331
3 | 4:31.07 | 2:23.54 | 20332 | 31110
4 | 6:54.61 | 2:32.13 | 31111 | 42523
5 | 9:26.74 | 2:10.16 | 42524 | 52289
6 | 11:37.15 | 2:09.58 | 52290 | 62022
7 | 13:46.73 | 2:10.21 | 62023 | 71793
8 | 15:57.19 | 2:57.70 | 71794 | 85138
9 | 18:55.14 | 2:56.57 | 85139 | 98395
10 | 21:51.71 | 2:48.34 | 98396 | 111029
11 | 24:40.30 | 2:42.73 | 111030 | 123252
12 | 27:23.28 | 2:34.12 | 123253 | 134814
13 | 29:57.40 | 1:35.53 | 134815 | 141992
14 | 31:33.18 | 2:23.67 | 141993 | 152784
15 | 33:57.10 | 2:54.10 | 152785 | 165844
16 | 36:51.20 | 2:18.17 | 165845 | 176211
17 | 39:09.37 | 2:28.27 | 176212 | 187338
18 | 41:37.64 | 2:19.11 | 187339 | 197774
19 | 43:57.00 | 2:25.32 | 197775 | 208681
20 | 46:22.32 | 2:13.08 | 208682 | 218664

Range status and errors

Selected range

Filename C:UsersLondonDesktopVarious Artists - Whole Lotta Shakin' - Sun Records [Disc 3].wav

Peak level 100.0 %
Extraction speed 8.3 X
Range quality 100.0 %
Test CRC 9980029B
Copy CRC 9980029B
Copy OK

No errors occurred

AccurateRip summary

Track 1 not present in database
Track 2 not present in database
Track 3 not present in database
Track 4 not present in database
Track 5 not present in database
Track 6 not present in database
Track 7 not present in database
Track 8 not present in database
Track 9 not present in database
Track 10 not present in database
Track 11 not present in database
Track 12 not present in database
Track 13 not present in database
Track 14 not present in database
Track 15 not present in database
Track 16 not present in database
Track 17 not present in database
Track 18 not present in database
Track 19 not present in database
Track 20 not present in database

None of the tracks are present in the AccurateRip database

End of status report

---- CUETools DB Plugin V2.1.6

[CTDB TOCID: BZqvMvfL49IzrXvGvJ02hvqDj.w-] found
Submit result: already submitted
Track | CTDB Status
1 | (1/1) Accurately ripped
2 | (1/1) Accurately ripped
3 | (1/1) Accurately ripped
4 | (1/1) Accurately ripped
5 | (1/1) Accurately ripped
6 | (1/1) Accurately ripped
7 | (1/1) Accurately ripped
8 | (1/1) Accurately ripped
9 | (1/1) Accurately ripped
10 | (1/1) Accurately ripped
11 | (1/1) Accurately ripped
12 | (1/1) Accurately ripped
13 | (1/1) Accurately ripped
14 | (1/1) Accurately ripped
15 | (1/1) Accurately ripped
16 | (1/1) Accurately ripped
17 | (1/1) Accurately ripped
18 | (1/1) Accurately ripped
19 | (1/1) Accurately ripped
20 | (1/1) Accurately ripped

==== Log checksum 450C338606D41835B5BDAF8E64DE95E4714C11B26A4DF487EF4111618D4D6D80 ====
Музыка / Lossless / Разное
СКАЧАТЬ БЕСПЛАТНО  [825.9 MB]


13
мая
2016

VA - Rock 'n' Roll Party - The Absolutely Essential (3CD) [2015, Rock 'N' Roll, FLAC]

Формат: FLAC, (image + .cue), lossless
Год выпуска: 2015
Страна: UK
Жанр: Rock 'N' Roll
Продолжительность: 02:16:17
Описание: CD 1 0001. Bill Haley - Rock Around The Clock 1954 02. Elvis Presley - Heartbreak Hotel 1956 03. Little Richard - Rip It Up 1956 04. Jerry Lee Lewis - Great Balls Of Fire 1957 05. Chuck Berry - Carol 1958 06. Gene Vincent - Be-Bop-A-Lula 1956 07. Eddie Cochran - Twenty Flight Rock 1957 08. Duane Eddy - Shazam 1960 09. Bo Diddley - Pretty Thing 1955 10. Buddy Holly & The Crickets - Oh Boy 1957 11. Del Shannon - Runaway 1961 12. The Everly Brothers - Wake Up Little Susie ...

01
фев
2016

VA - Shakin' All Over: The Best Of British Rock 'N' Roll (2CD) [2012, Rock 'N' Roll, Pop, Easy Listening, FLAC]

Формат: FLAC, (image + .cue), lossless
Год выпуска: 2012
Страна: All World
Жанр: Rock 'N' Roll, Pop, Easy Listening
Продолжительность: 01:28:51
Описание: CD 1 0001. Adam Faith - What Do You Want 02. Cliff Richard & The Drifters - Move It 03. Johnny Kidd And The Pirates - Shakin' All Over 04. Billy Fury - Colette 05. Alma Cogan - Dreamboat 06. Marty Wilde - A Teenager In Love 07. Tommy Steele - Singin’ The Blues 08. Dickie Pride - Primrose Lane 09. Frankie Vaughan - Garden Of Eden 10. The Stargazers - She Loves To Rock 11. Lonnie Donegan - Cumberland Gap 12. Cliff Richard & The Shadows - Travel ...

31
авг
2015

VA - Good For Nothin': The Vogue Records Story 1956-1962 (3CD) [2013, Rock'n'Roll, FLAC]

Формат: FLAC, (tracks + .cue), lossless
Год выпуска: 2013
Страна: USA
Жанр: Rock'n'Roll
Продолжительность: 02:51:45
Описание: CD 1 0001. Thurston Harris & The Sharps - Little Bitty Pretty One 03. Doyle Wilson with Jimmy Lacey & Band - You're The One For Me 04. Big 'T' Tyler - King Kong 05. Bobby Bland - Cry. Cry. Cry 06. Aggie Dukes - John John 07. Scott Walker - The Livin' End 08. Fugitives - Freeway 09. Charles Brown - I'll Always Be In Love With You 10. Gene & Eunice - Bom Bom Lulu 11. Jivers - Ray Pearl 12. Marvin & Johnny - Smack Smack 13. Charmers - Oh! Yes 14. James Booker - Gonzo 15. T ...

10
окт
2016

10cc - I'm Not In Love: The Essential (3CD) [2016, Rock, Glam Rock, Art Rock, FLAC]

Формат: FLAC, (image + .cue), lossless
Год выпуска: 2016
Страна: UK
Жанр: Rock, Glam Rock, Art Rock
Продолжительность: 03:54:02
Описание: CD 1 01 01. I'm Not In Love (1975) 02. Life Is A Minestrone (1975) 03. Une Nuit A Paris - Part One) / The Same Night In Paris - Part Two / Later The Same Night In Paris - Part Three (1975) 04. The Second Sitting For The Last Supper (1975) 05. Brand New Day (1975) 06. Channel Swimmer (1975) 07. Good News (1975) 08. Art For Art's Sake (1975) 09. Get It While You Can (1975) 10. I'm Mandy Fly Me (1975) 11. I Wanna Rule The World (1975) 12. Head Room (1975) 13. L ...

27
мая
2015

VA - Good Rockin' Tonight: The Legacy of Sun Records (feat. Paul McCartney, Mark Knopfler, Robert Plant, Johnny Hallyday) [2001, Rock'n'roll, interview, DVD5]

Формат: DVD5, DVD Video, MPEG2, AC3
Песня: Good Rockin' Tonight: The Legacy of Sun Records (feat. Paul McCartney, Mark Knopfler, Robert Plant, Johnny Hallyday)
Жанр: Rock'n'roll, interview
Продолжительность: 01:51:53
Год выпуска: 2001
Видео: 720 x 480 (NTSC 16:9), 29.970 fps, MPEG-2, ~ 4294 kbps, 0.0.415 bit/pixel
Аудио#1: AC3, 6ch, 448 Kbps, 48.0 KHz
Аудио#2: AC3, 2ch, 224 Kbps, 48.0 KHz
Доп. информация: Треклист01. Introduction; Main Title 02. Sun Records’ Survival 03. How It All Began 04. Elvis Presley 05. Paul McCartney “That’s All Right” 06. Carl Perkins 07. Ben Folds Five “Honey Don’t” ...

05
мая
2017

Howlin' Wolf - Blues From Hell (Career Retrospective 46 Essential Tracks on 3CD) [2011, Blues, Chicago Blues, MP3]

Формат: MP3, tracks, 320kbps
Год выпуска: 2011
Страна: USA
Жанр: Blues, Chicago Blues
Продолжительность: 02:07:43
Описание: Disc 1 0001. Smokestack Lightnin' [0:03:06.29] 02. Spoonful [0:02:44.62] 03. The Wolf Is At Your Door [0:02:58.61] 04. Evil (Is Going On) [0:02:54.59] 05. I Asked For Water (She Gave Me Gasoline) [0:02:52.01] 06. Poor Boy [0:02:35.29] 07. Moanin' For My Baby [0:02:50.04] 08. I Have A Little Girl [0:02:36.33] 09. I Better Go Now [0:02:44.32] 10. My Baby Stole Off [0:02:58.73] 11. No Place To Go [0:02:53.13] 12. My Life [0:03:02.19] 13. I Didn't Know [0:02:26.03] 14. I've B ...

25
дек
2017

VA - Elliptical Sun Recordings 2017 [2017, Trance, MP3]

Формат: MP3, tracks, 320kbps
Год выпуска: 2017
Страна: All World
Жанр: Trance
Продолжительность: 01:17:54
Описание: 01. Rylan Taggart - Constellation (Intro Mix) 5:51 02. Adrian Alexander - Oceans Calling (Bryn Liedl Remix) 5:58 03. Aressa - Nisyros (Original Mix) 5:40 04. Paul Arcane - Reflection (Original Mix) 6:09 05. The Antipodes - Artefact (Original Mix) 6:08 06. Emerge - Clear Light (Original Mix) 5:32 07. Maglev - In Time (Original Mix) 6:18 08. Adrian Alexander - Propagate (Sunny Lax Remix) 6:47 09. Emerge - Art Of Living (Original Mix) 5:40 10. Adrian Alexander - Chromatic (Original ...

09
июн
2016

Shakin' Stevens - The Best Of... [1970 1991, Rock N Roll, DVD5]

Формат: DVD5, DVD Video, MPEG2, AC3
Песня: The Best Of...
Жанр: Rock’N’Roll
Продолжительность: 01:11:21
Год выпуска: 1970 – 1991
Видео: 720х576 (PAL 16:9), 25,000 fps, MPEG-2, ~7887 kbps avg, 0.761 bit/pixel
Аудио: 48.0 КГц, Audio Coding 3, 2 ch, 192 kbps
Доп. информация: Майкл Барратт более известный под сценическим псевдонимом Shakin' Stevens — британский (валлийский) певец, достигший наибольшей популярности в 80-е годы ХХ века. Синглы Стивенса 33 раза попадали в топ-40 британского чарта, 4 из них («This Ole House», «Green Door», «Oh Julie» и «Merry Christmas Everyone») достигли вершины. П ...

21
дек
2016

VA - 3/60 - Disco Anthems (3CD) [2011, Disco, Soul, Funk, FLAC]

Формат: FLAC, (tracks + .cue), lossless
Год выпуска: 2011
Страна: All World
Жанр: Disco, Soul, Funk
Продолжительность: 03:58:46
Описание: CD 1 0101. Candi Staton – Young Hearts Run Free 02. Sister Sledge – We Are Family 03. Change – Searching 04. Chic – Everybody Dance 05. Phreek – Weekend 06. Mass Production – Cosmic Lust 07. Laura Branigan – Gloria 08. Luisa Fernandez – Lay Love On Me 09. Narada Michael Walden – I Shoulda Loved Ya 10. Chaka Khan – Fate 11. The Detroit Spinners – I'll Be Around 12. Silver Convention – Fly Robin Fly 13. Freddie James – Get On Up And Boogie 14. Sérgio Mend ...

25
сен
2011

VA - Ultimate Chillout Lounge Collection - 60 More Essential Chilled Classics [September 2011, Chillout, Lounge, Downtempo, MP3]

Формат: MP3, tracks, 320kbps
Год выпуска: September 2011
Страна: All World
Жанр: Chillout, Lounge, Downtempo
Продолжительность: 04:45:01
Описание: Треклист01. Zoom - DJ FXU 02. Blue - DJ Goloka 03. Tripped Elysia - DJ Jenny Deloitte with the Lush Groove Orchestra 04. Chilled Goodbyes (Alucidnation Dream Mix) - DJ Alpha X 05. Lunar Masquerade ( Night watch mix) - DJ Dreamcatcher 06. 1000 Miles - DJ Roebeck 07. Only One Time ( Long Languid Version) - DJ Bacon Royale 08. Song 4573 - DJ United People of Chill 09. New day - DJ One Cool Fossil 10. Chill Pill ( Beach Terrace Mix) - DJ East River Beat ...

14
ноя
2013

Shakin' Stevens and The Sunsets - Story Of The Rockers (1976) [1993, Rock-n-Roll, MP3]

Формат: MP3, tracks, 320kbps
Год выпуска: 1993
Страна: UK
Жанр: Rock-n-Roll
Продолжительность: 00:49:45
Описание: 01. Blue Swinging Mama 02. You Modest Girl 03. Sexy Ways 04. Honey Hush 05. Evil Hearted 06. Jungle Rock 07. My Baby Died 08. Reet Petite 09. Monkey's Uncle 10. Silver Wings 11. Memphis Earthquake 12. Rock Around With Ollie Vee 13. Story Of The Rockers 14. Frantic 15. Baby Blue 16. Ready Teddy 17. Tear It Up 18. Justine 19. Oakie Boogie 20. Drinkin' Wine Spo-Dee-O-Dee
Доп. информация: Рип с оригинального Lossless

07
авг
2013

VA - Magic Summertime 60 Feelgood Singalong Songs (3CD) [2013, Pop, Dance, MP3]

Формат: MP3, tracks, 320kbps
Год выпуска: 2013
Страна: All World
Жанр: Pop, Dance
Продолжительность: 03:44:28
Описание: CD1 - 01 01 - Mark Ronson Feat. Amy Winehouse - Valerie (03:38) 02 - ABBA - Voulez-Vous (05:06) 03 - Michael Jackson - The Way You Make Me Feel (04:24) 04 - Wham! - Club Tropicana (04:26) 05 - Justin Timberlake - Rock Your Body (04:28) 06 - Gnarls Barkley - Crazy (02:59) 07 - Jennifer Lopez - If You Had My Love (03:47) 08 - Ricky Martin - Livin' La Vida Loca (04:03) 09 - Katrina & The Waves - Walking On Sunshine (03:57) 10 - Shakira - Whenever, Wherever (03:17) 11 ...

29
мар
2018

Duke Ellington - The Essential Recordings (1940-1942) [1993, Swing, Big Band, FLAC]

Формат: FLAC, (tracks + .cue), lossless
Год выпуска: 1993
Страна: UK
Жанр: Swing, Big Band
Продолжительность: 01:08:39
Описание: 01. Ko-Ko (2:44) 02. Jack the Bear (3:16) 03. Conga Brava (2:56) 04. Concerto for Cootie (3:17) 05. Cotton Tail (3:11) 06. Never No Lament (3:20) 07. Bojangles (A Portrait of Bill Robinson) (2:53) 08. Harlem Air Shaft (3:00) 09. All Too Soon (3:31) 10. In a Mellotone (3:19) 11. Warm Valley (3:21) 12. Flamingo (3:23) 13. Take the "A" Train (2:54) 14. Jumpin' Punkins (3:43) 15. I Got It Bad (And That Ain't Good) (3:19) 16. Chelsea Bridge (2:54) 17. Raincheck (2:31) 18. ...

20
июн
2018

Bing Crosby - Essential Early Recordings (2CD) [2010, Pop, Vocal Jazz, FLAC]

Формат: FLAC, (tracks + .cue), lossless
Год выпуска: 2010
Страна: USA
Жанр: Pop, Vocal Jazz
Продолжительность: 02:03:00
Описание: CD1 01 01. Side by Side (3:05) 02. Night and Day (3:13) 03. Just One More Chance (3:16) 04. Sweet Georgia Brown (3:02) 05. Red Sails In the Sunset (3:12) 06. Don't Fence Me In (3:04) 07. Three Little Words (3:04) 08. I Found a Million Dollar Baby (In a Five and Ten Cent Store) (3:02) 09. Please (3:02) 10. Pennies From Heaven (3:08 ) 11. Sweet Leilani (3:13) 12. Muddy Water (3:11) 13. Trade Winds (3:14) 14. I'm Thru With Love (3:15) 15. Brother, Can You Spare a Dime? ...

05
ноя
2010

Cliff Richard - Essential Early Recordings (2CD) [2010, Rock'n'roll, MP3]

Формат: MP3, tracks, 320kbps
Год выпуска: 2010
Страна: UK
Жанр: Rock'n'roll
Продолжительность: 01:36:27
Описание: CD1 01. Livin' Doll 02. High Class Baby 03. Livin' Lovin' Doll 04. Steady With You 05. My Feet Hit The Ground 06. Apron Strings 07. My Babe 08. Down The Line 09. I Got A Feeling 10. Jet Black 11. Baby I Don't Care 12. Donna 13. Move It 14. Ready Teddy 15. Too Much 16. Don't Bug Me Baby 17. Driftin' 18. That'll Be The Day 19. Be-Bop-a-Lula 20. Danny 21. Whole Lotta Shakin' Goin' On CD2 01. Travellin' Light 02. Dynamite 03. Mean Streak 04. Never Mind 05. Schoolboy Crush 06. Blue Su ...