31
мар
2019

VA - 250 Years Of Great Music (4CD) [1992, Classical Music, FLAC]

VA - 250 Years Of Great Music (4CD)
Формат: FLAC, (image + .cue), lossless
Год выпуска: 1992
Страна: All World
Жанр: Classical Music
Продолжительность: 04:34:30
Описание:
CD1 01

01. Wolfgang Amadeus Mozart - The Marriage of Figaro Overture (4:25)
02. Johann Pachelbel - Canon in D (3:46)
03. Joseph Haydn - Serenade (2:39)
04. Luigi Boccherini - Minuet from Quintet in E Major (1:31)
05. Georg Friedrich Händel - Arrival of the Queen of Sheba From 'Solomon' (3:14)
06. Johann Sebastian Bach - Air for the G String (4:03)
07. Hector Berlioz - The Damnation of Faust: Rakoczy March (4:25)
08. Niccolò Paganini - Moto Perpetuo, Op. 11 (4:45)
09. Vincenzo Bellini - Casta Diva From 'Norma' (3:07)
10. Johann Strauss I - Radetzky March (2:39)
11. Gioachino Rossini - Largo al Factotum from 'The Barber of Seville' (4:51)
12. Franz Schubert - Marche Militaire (5:02)
13. Ludwig van Beethoven - 'Moonlight' Sonata (3:30)
14. Frédéric Chopin - Military Polonaise (2:59)
15. Franz Liszt - Liebestraum (3:57)
16. Robert Schumann - Träumerei (3:42)
17. Felix Mendelssohn - Scherzo from 'A Midsummer Night's Dream' (4:46)
18. Giuseppe Verdi - Triumphal March from 'Aida' (5:42)
eac
Exact Audio Copy V1.0 beta 3 from 29. August 2011

EAC extraction logfile from 29. March 2019, 17:47

Various / Reader's Digest - 250 Years of Great Music (Disc 1)

Used drive : PIONEER BD-RW BDR-TD03 Adapter: 0 ID: 1

Read mode : Secure
Utilize accurate stream : Yes
Defeat audio cache : Yes
Make use of C2 pointers : No

Read offset correction : 667
Overread into Lead-In and Lead-Out : No
Fill up missing offset samples with silence : Yes
Delete leading and trailing silent blocks : No
Null samples used in CRC calculations : Yes
Used interface : Native Win32 interface for Win NT & 2000

Used output format : User Defined Encoder
Selected bitrate : 768 kBit/s
Quality : High
Add ID3 tag : No
Command line compressor : C:Program Files (x86)Exact Audio CopyFLACFLAC.EXE
Additional command line options : -6 -V -T "ARTIST=%artist%" -T "TITLE=%title%" -T "ALBUM=%albumtitle%" -T "DATE=%year%" -T "TRACKNUMBER=%tracknr%" -T "GENRE=%genre%" -T "COMMENT=%comment%" -T "BAND=%albuminterpret%" -T "ALBUMARTIST=%albuminterpret%" -T "COMPOSER=%composer%" %haslyrics%--tag-from-file=LYRICS="%lyricsfile%"%haslyrics% -T "DISCNUMBER=%cdnumber%" -T "TOTALDISCS=%totalcds%" -T "TOTALTRACKS=%numtracks%" %hascover%--picture="%coverfile%"%hascover% %source% -o %dest%

TOC of the extracted CD

Track | Start | Length | Start sector | End sector
---------------------------------------------------------
1 | 0:00.37 | 4:25.48 | 37 | 19959
2 | 4:26.10 | 3:46.20 | 19960 | 36929
3 | 8:12.30 | 2:39.07 | 36930 | 48861
4 | 10:51.37 | 1:31.45 | 48862 | 55731
5 | 12:23.07 | 3:14.70 | 55732 | 70351
6 | 15:38.02 | 4:03.63 | 70352 | 88639
7 | 19:41.65 | 4:25.62 | 88640 | 108576
8 | 24:07.52 | 4:45.10 | 108577 | 129961
9 | 28:52.62 | 3:07.35 | 129962 | 144021
10 | 32:00.22 | 2:39.50 | 144022 | 155996
11 | 34:39.72 | 4:51.70 | 155997 | 177891
12 | 39:31.67 | 5:02.15 | 177892 | 200556
13 | 44:34.07 | 3:30.15 | 200557 | 216321
14 | 48:04.22 | 2:59.10 | 216322 | 229756
15 | 51:03.32 | 3:57.28 | 229757 | 247559
16 | 55:00.60 | 3:42.32 | 247560 | 264241
17 | 58:43.17 | 4:46.28 | 264242 | 285719
18 | 63:29.45 | 5:42.27 | 285720 | 311396

Range status and errors

Selected range

Filename C:UsersDerisDesktopkpnemo.eu250MusicCD1Various - Reader's Digest - 250 Years of Great Music (Disc 1).wav

Peak level 93.6 %
Extraction speed 5.0 X
Range quality 100.0 %
Test CRC 8DA1F93E
Copy CRC 8DA1F93E
Copy OK

No errors occurred

AccurateRip summary

Track 1 accurately ripped (confidence 2) [DD6CEA87] (AR v2)
Track 2 accurately ripped (confidence 2) [D58EA148] (AR v2)
Track 3 accurately ripped (confidence 2) [7B7F1C5C] (AR v2)
Track 4 accurately ripped (confidence 2) [C3CADD95] (AR v2)
Track 5 accurately ripped (confidence 2) [D72E3786] (AR v2)
Track 6 accurately ripped (confidence 2) [73C73BC1] (AR v2)
Track 7 accurately ripped (confidence 2) [428705EE] (AR v2)
Track 8 accurately ripped (confidence 2) [14542B4D] (AR v2)
Track 9 accurately ripped (confidence 2) [3A940FC6] (AR v2)
Track 10 accurately ripped (confidence 2) [251A2D40] (AR v2)
Track 11 accurately ripped (confidence 2) [5884F78A] (AR v2)
Track 12 accurately ripped (confidence 2) [059B0EBC] (AR v2)
Track 13 accurately ripped (confidence 2) [D2939E76] (AR v2)
Track 14 accurately ripped (confidence 2) [C1A43E62] (AR v2)
Track 15 accurately ripped (confidence 2) [24A829FD] (AR v2)
Track 16 accurately ripped (confidence 2) [AFEB42B1] (AR v2)
Track 17 accurately ripped (confidence 2) [EE8C65BE] (AR v2)
Track 18 accurately ripped (confidence 2) [CB973442] (AR v2)

All tracks accurately ripped

End of status report

---- CUETools DB Plugin V2.1.3

[CTDB TOCID: qWurPEDh48IAxRDcEXMW9iXEme8-] found
[e1d01d97] (5/5) No match

==== Log checksum D0EF294FB3D4DA017462461332A2DC93AFBAE18B1BA2C7F13F877FBA865008D2 ====
CD2 01

01. Richard Wagner - Ride of the Valkyries from 'Die Walküre' (5:06)
02. Jacques Offenbach - Barcarolle from 'The Tales of Hoffmann' (4:09)
03. Charles‐François Gounod - Grand March from 'The Queen of Sheba' (4:41)
04. Johann Strauss II - On the Beautiful Blue Danube (4:48 )
05. Alexander Borodin - Scherzo from String Quartet No. 2 (4:17)
06. Franz von Suppé - Light Cavalry Overture (4:27)
07. Anton Rubinstein - Melody in F, Op. 3., No. 1 (4:05)
08. Johannes Brahms - Hungarian Dance No. 5 (2:20)
09. Bedřich Smetana - Dance of the Comedians from 'The Bartered Bride' (3:09)
10. Léo Delibes - Waltz from 'Coppelia' (3:13)
11. César Franck - Panis Angelicus (4:37)
12. Émile Waldteufel - The Skater's Waltz (7:38 )
13. Camille Saint‐Saëns - The Swan from 'The Carnival of the Animals' (3:28 )
14. Georges Bizet - Habanera from 'Carmen' (2:29)
15. Modeste Moussorgsky - The Great Gate at Kiev from 'Pictures at an Exhibition' (6:58 )
16. Peter Ilyich Tchaikovsky - Dance of the Sugar Plum Fairy from 'The Nutcracker Suite' (1:49)
eac
Exact Audio Copy V1.0 beta 3 from 29. August 2011

EAC extraction logfile from 29. March 2019, 20:13

Reader's Digest / Reader's Digest - 250 Years of Great Music,CD2of4

Used drive : PIONEER BD-RW BDR-TD03 Adapter: 0 ID: 1

Read mode : Secure
Utilize accurate stream : Yes
Defeat audio cache : Yes
Make use of C2 pointers : No

Read offset correction : 667
Overread into Lead-In and Lead-Out : No
Fill up missing offset samples with silence : Yes
Delete leading and trailing silent blocks : No
Null samples used in CRC calculations : Yes
Used interface : Native Win32 interface for Win NT & 2000

Used output format : User Defined Encoder
Selected bitrate : 768 kBit/s
Quality : High
Add ID3 tag : No
Command line compressor : C:Program Files (x86)Exact Audio CopyFLACFLAC.EXE
Additional command line options : -6 -V -T "ARTIST=%artist%" -T "TITLE=%title%" -T "ALBUM=%albumtitle%" -T "DATE=%year%" -T "TRACKNUMBER=%tracknr%" -T "GENRE=%genre%" -T "COMMENT=%comment%" -T "BAND=%albuminterpret%" -T "ALBUMARTIST=%albuminterpret%" -T "COMPOSER=%composer%" %haslyrics%--tag-from-file=LYRICS="%lyricsfile%"%haslyrics% -T "DISCNUMBER=%cdnumber%" -T "TOTALDISCS=%totalcds%" -T "TOTALTRACKS=%numtracks%" %hascover%--picture="%coverfile%"%hascover% %source% -o %dest%

TOC of the extracted CD

Track | Start | Length | Start sector | End sector
---------------------------------------------------------
1 | 0:00.37 | 5:06.25 | 37 | 23011
2 | 5:06.62 | 4:09.48 | 23012 | 41734
3 | 9:16.35 | 4:41.12 | 41735 | 62821
4 | 13:57.47 | 4:48.70 | 62822 | 84491
5 | 18:46.42 | 4:17.23 | 84492 | 103789
6 | 23:03.65 | 4:27.47 | 103790 | 123861
7 | 27:31.37 | 4:05.30 | 123862 | 142266
8 | 31:36.67 | 2:20.60 | 142267 | 152826
9 | 33:57.52 | 3:09.35 | 152827 | 167036
10 | 37:07.12 | 3:13.18 | 167037 | 181529
11 | 40:20.30 | 4:37.12 | 181530 | 202316
12 | 44:57.42 | 7:38.68 | 202317 | 236734
13 | 52:36.35 | 3:28.20 | 236735 | 252354
14 | 56:04.55 | 2:29.65 | 252355 | 263594
15 | 58:34.45 | 6:58.00 | 263595 | 294944
16 | 65:32.45 | 1:49.42 | 294945 | 303161

Range status and errors

Selected range

Filename C:UsersDerisDesktopkpnemo.eu250MusicCD2Reader's Digest - Reader's Digest - 250 Years of Great Music,CD2of4.wav

Peak level 90.4 %
Extraction speed 5.0 X
Range quality 100.0 %
Test CRC 0AF9494F
Copy CRC 0AF9494F
Copy OK

No errors occurred

AccurateRip summary

Track 1 accurately ripped (confidence 2) [65AE95CA] (AR v2)
Track 2 accurately ripped (confidence 2) [3875CD4C] (AR v2)
Track 3 accurately ripped (confidence 2) [14A0485A] (AR v2)
Track 4 accurately ripped (confidence 2) [F9EA3F26] (AR v2)
Track 5 accurately ripped (confidence 2) [7AEAEB97] (AR v2)
Track 6 accurately ripped (confidence 2) [EA8CDF5B] (AR v2)
Track 7 accurately ripped (confidence 2) [0453766C] (AR v2)
Track 8 accurately ripped (confidence 2) [1F1D7FCB] (AR v2)
Track 9 accurately ripped (confidence 2) [7AC0B659] (AR v2)
Track 10 accurately ripped (confidence 2) [1F8035D0] (AR v2)
Track 11 accurately ripped (confidence 2) [1AEED3C5] (AR v2)
Track 12 accurately ripped (confidence 2) (AR v2)
Track 13 accurately ripped (confidence 2) [A3549207] (AR v2)
Track 14 accurately ripped (confidence 2) [5C4D56D7] (AR v2)
Track 15 accurately ripped (confidence 2) [8179DEAF] (AR v2)
Track 16 accurately ripped (confidence 2) [C6CFA5FE] (AR v2)

All tracks accurately ripped

End of status report

---- CUETools DB Plugin V2.1.3

[CTDB TOCID: Y9Pzw8JLZp6Z91CeM635ZVB1x1c-] found
[4ba2bfda] (2/2) No match

==== Log checksum F48A045E104DCF5738E30CB1384D389D690A14401B337A3BF2337525A951B86C ====
CD3 01

01. Emmanuel Chabrier - Espana Rhapsody (6:31)
02. Antonin Dvorak - Humoresque (3:36)
03. Claude Debussy - Reverie (5:11)
04. Edvard Grieg - Solveig's Song from "Peer Gynt" (5:13)
05. Gabriel Faure - Berceuse from "Dolly" (3:18 )
06. Pietro Mascagni - Intermezzo from "Cavalleria Rusticana" (3:58 )
07. Edvard MacDowell - To a Wild Rose (3:14)
08. John Philip Sousa - Stars and Stripes Forever,The (3:34)
09. Giacomo Puccini - O Mio Babbino Caro (Oh, My Beloved Father) from "Gianni Schicchi" (2:41)
10. Isaac Manuel Francisco Albeniz - Tango in D (3:08 )
11. Nicolai Rimsky-Korsakov - Sea And Sinbad's Ship,The [Theme,fromScheherezade] (2:57)
12. Richard Strauss - Also Sprach Zarathustra (Excerpt) (2:01)
13. Jules Massenet - Meditation from Thais (4:26)
14. Edward Elgar - Pomp and Circumstance March No. 1 (2:24)
15. Jean Sibelius - Valse Triste (4:22)
16. Eric Coates - Knightsbridge March from "London Suite" (4:49)
17. Hugo Alfven - Swedish Rhapsody (3:10)
18. Ralph Vaughan Williams - Fantasia On Greensleeves (4:30)
eac
Exact Audio Copy V1.0 beta 3 from 29. August 2011

EAC extraction logfile from 29. March 2019, 21:06

Reader's Digest / Reader's Digest - 250 Years of Great Music,CD3of4

Used drive : PIONEER BD-RW BDR-TD03 Adapter: 0 ID: 1

Read mode : Secure
Utilize accurate stream : Yes
Defeat audio cache : Yes
Make use of C2 pointers : No

Read offset correction : 667
Overread into Lead-In and Lead-Out : No
Fill up missing offset samples with silence : Yes
Delete leading and trailing silent blocks : No
Null samples used in CRC calculations : Yes
Used interface : Native Win32 interface for Win NT & 2000

Used output format : User Defined Encoder
Selected bitrate : 768 kBit/s
Quality : High
Add ID3 tag : No
Command line compressor : C:Program Files (x86)Exact Audio CopyFLACFLAC.EXE
Additional command line options : -6 -V -T "ARTIST=%artist%" -T "TITLE=%title%" -T "ALBUM=%albumtitle%" -T "DATE=%year%" -T "TRACKNUMBER=%tracknr%" -T "GENRE=%genre%" -T "COMMENT=%comment%" -T "BAND=%albuminterpret%" -T "ALBUMARTIST=%albuminterpret%" -T "COMPOSER=%composer%" %haslyrics%--tag-from-file=LYRICS="%lyricsfile%"%haslyrics% -T "DISCNUMBER=%cdnumber%" -T "TOTALDISCS=%totalcds%" -T "TOTALTRACKS=%numtracks%" %hascover%--picture="%coverfile%"%hascover% %source% -o %dest%

TOC of the extracted CD

Track | Start | Length | Start sector | End sector
---------------------------------------------------------
1 | 0:00.37 | 6:31.28 | 37 | 29389
2 | 6:31.65 | 3:36.67 | 29390 | 45656
3 | 10:08.57 | 5:11.28 | 45657 | 69009
4 | 15:20.10 | 5:13.72 | 69010 | 92556
5 | 20:34.07 | 3:18.28 | 92557 | 107434
6 | 23:52.35 | 3:58.17 | 107435 | 125301
7 | 27:50.52 | 3:14.48 | 125302 | 139899
8 | 31:05.25 | 3:34.02 | 139900 | 155951
9 | 34:39.27 | 2:41.40 | 155952 | 168066
10 | 37:20.67 | 3:08.53 | 168067 | 182219
11 | 40:29.45 | 2:57.37 | 182220 | 195531
12 | 43:27.07 | 2:01.10 | 195532 | 204616
13 | 45:28.17 | 4:26.38 | 204617 | 224604
14 | 49:54.55 | 2:24.00 | 224605 | 235404
15 | 52:18.55 | 4:22.57 | 235405 | 255111
16 | 56:41.37 | 4:49.13 | 255112 | 276799
17 | 61:30.50 | 3:10.72 | 276800 | 291121
18 | 64:41.47 | 4:30.55 | 291122 | 311426

Range status and errors

Selected range

Filename C:UsersDerisDesktopkpnemo.eu250MusicCD3Reader's Digest - Reader's Digest - 250 Years of Great Music,CD3of4.wav

Peak level 98.0 %
Extraction speed 3.4 X
Range quality 99.9 %
Test CRC D9B54DE9
Copy CRC D9B54DE9
Copy OK

No errors occurred

AccurateRip summary

Track 1 accurately ripped (confidence 1) [4A334B41] (AR v2)
Track 2 accurately ripped (confidence 1) [D565F116] (AR v2)
Track 3 accurately ripped (confidence 1) [8F407D46] (AR v2)
Track 4 accurately ripped (confidence 1) [7840835E] (AR v2)
Track 5 accurately ripped (confidence 1) [D6533A12] (AR v2)
Track 6 accurately ripped (confidence 1) [186C9427] (AR v2)
Track 7 accurately ripped (confidence 1) [DD506B9B] (AR v2)
Track 8 accurately ripped (confidence 1) [91F56BB6] (AR v2)
Track 9 accurately ripped (confidence 1) [7C797102] (AR v2)
Track 10 accurately ripped (confidence 1) [CEE66540] (AR v2)
Track 11 accurately ripped (confidence 1) [49BF0E90] (AR v2)
Track 12 accurately ripped (confidence 1) [136E9215] (AR v2)
Track 13 accurately ripped (confidence 1) [64D576E8] (AR v2)
Track 14 accurately ripped (confidence 1) [89E31994] (AR v2)
Track 15 accurately ripped (confidence 1) [243D4D91] (AR v2)
Track 16 accurately ripped (confidence 1) [7A86BF63] (AR v2)
Track 17 accurately ripped (confidence 1) [CE25D665] (AR v2)
Track 18 accurately ripped (confidence 1) [9C26AD20] (AR v2)

All tracks accurately ripped

End of status report

---- CUETools DB Plugin V2.1.3

[CTDB TOCID: 2Mo1Tmjrfs8WwWvdAfqxOZkvWpU-] found
[848c1766] (1/3) No match
[75c6aa5e] (2/3) Accurately ripped

==== Log checksum 7AE7FDBF1031858A690452F16EC6451574F6E13A71EC596B9B283EE4CC744066 ====
CD4 01

01. Sergei Rachmaninoff - Rhapsody on a Theme by Paganini, 18th Variation (3:19)
02. Enrique Granados - Maiden And The Nightingale, The [from "Goyescas" (4:33)
03. Fritz Kreisler - Liebesfreud (3:51)
04. Maurice Ravel - Pavane for a Dead Princess (excerpt) (5:36)
05. Manuel de Falla - Ritual Fire Dance from "El Amor Brujo" (3:55)
06. Ottorino Respighi - The Pines of the Appian Way from "The Pines of Rome" (5:11)
07. Sergei Prokofiev - Troika from "Lieutenant Kije Suite" (2:50)
08. Franz Lehar - Vilia from "The Merry Widow" (2:41)
09. Aram Khachaturian - Sabre Dance from "Gayne" (2:33)
10. Igor Stravinsky - Fireworks (3:58 )
11. Heitor Villa-Lobos - The Little Train of the Brazilian Countrymen (3:26)
12. George Gershwin - Rhapsody in Blue (2:52)
13. Dmitri Shostakovich - Romance from "The Gadfly" (3:44)
14. Leonard Bernstein - Overture from "Candide" (4:21)
15. Ferde Grofe - On the Trail from "Grand Canyon Suite" (4:57)
16. Leroy Anderson - Sleigh Ride (3:05)
17. Morton Gould - Tropical (3:11)
18. Aaron Copland - Simple Gifts from "Applachian Spring" (4:38 )
eac
Exact Audio Copy V1.0 beta 3 from 29. August 2011

EAC extraction logfile from 29. March 2019, 21:58

Reader's Digest / Reader's Digest - 250 Years of Great Music,CD4of4

Used drive : PIONEER BD-RW BDR-TD03 Adapter: 0 ID: 1

Read mode : Secure
Utilize accurate stream : Yes
Defeat audio cache : Yes
Make use of C2 pointers : No

Read offset correction : 667
Overread into Lead-In and Lead-Out : No
Fill up missing offset samples with silence : Yes
Delete leading and trailing silent blocks : No
Null samples used in CRC calculations : Yes
Used interface : Native Win32 interface for Win NT & 2000

Used output format : User Defined Encoder
Selected bitrate : 768 kBit/s
Quality : High
Add ID3 tag : No
Command line compressor : C:Program Files (x86)Exact Audio CopyFLACFLAC.EXE
Additional command line options : -6 -V -T "ARTIST=%artist%" -T "TITLE=%title%" -T "ALBUM=%albumtitle%" -T "DATE=%year%" -T "TRACKNUMBER=%tracknr%" -T "GENRE=%genre%" -T "COMMENT=%comment%" -T "BAND=%albuminterpret%" -T "ALBUMARTIST=%albuminterpret%" -T "COMPOSER=%composer%" %haslyrics%--tag-from-file=LYRICS="%lyricsfile%"%haslyrics% -T "DISCNUMBER=%cdnumber%" -T "TOTALDISCS=%totalcds%" -T "TOTALTRACKS=%numtracks%" %hascover%--picture="%coverfile%"%hascover% %source% -o %dest%

TOC of the extracted CD

Track | Start | Length | Start sector | End sector
---------------------------------------------------------
1 | 0:00.37 | 3:19.50 | 37 | 15011
2 | 3:20.12 | 4:33.25 | 15012 | 35511
3 | 7:53.37 | 3:51.58 | 35512 | 52894
4 | 11:45.20 | 5:36.60 | 52895 | 78154
5 | 17:22.05 | 3:55.15 | 78155 | 95794
6 | 21:17.20 | 5:11.55 | 95795 | 119174
7 | 26:29.00 | 2:50.45 | 119175 | 131969
8 | 29:19.45 | 2:41.60 | 131970 | 144104
9 | 32:01.30 | 2:33.50 | 144105 | 155629
10 | 34:35.05 | 3:58.70 | 155630 | 173549
11 | 38:34.00 | 3:26.25 | 173550 | 189024
12 | 42:00.25 | 2:52.72 | 189025 | 201996
13 | 44:53.22 | 3:44.50 | 201997 | 218846
14 | 48:37.72 | 4:21.73 | 218847 | 238494
15 | 52:59.70 | 4:57.00 | 238495 | 260769
16 | 57:56.70 | 3:05.67 | 260770 | 274711
17 | 61:02.62 | 3:11.15 | 274712 | 289051
18 | 64:14.02 | 4:38.50 | 289052 | 309951

Range status and errors

Selected range

Filename C:UsersDerisDesktopkpnemo.eu250MusicCD4Reader's Digest - Reader's Digest - 250 Years of Great Music,CD4of4.wav

Peak level 99.3 %
Extraction speed 5.1 X
Range quality 100.0 %
Test CRC 5854865E
Copy CRC 5854865E
Copy OK

No errors occurred

AccurateRip summary

Track 1 accurately ripped (confidence 1) [D01F37D4] (AR v2)
Track 2 accurately ripped (confidence 1) [4382D74F] (AR v2)
Track 3 accurately ripped (confidence 1) [171D5962] (AR v2)
Track 4 accurately ripped (confidence 1) [913D647C] (AR v2)
Track 5 accurately ripped (confidence 1) [E526B193] (AR v2)
Track 6 accurately ripped (confidence 1) [F7C87801] (AR v2)
Track 7 accurately ripped (confidence 1) [922A3736] (AR v2)
Track 8 accurately ripped (confidence 1) [1EEFC2A9] (AR v2)
Track 9 accurately ripped (confidence 1) [C1FDCC2F] (AR v2)
Track 10 accurately ripped (confidence 1) [C5A0EB7A] (AR v2)
Track 11 accurately ripped (confidence 1) [5D66B457] (AR v2)
Track 12 accurately ripped (confidence 1) [CE1A640A] (AR v2)
Track 13 accurately ripped (confidence 1) [8B90C792] (AR v2)
Track 14 accurately ripped (confidence 1) [0227C94E] (AR v2)
Track 15 accurately ripped (confidence 1) [6FEE765A] (AR v2)
Track 16 accurately ripped (confidence 1) [08CAAFC1] (AR v2)
Track 17 accurately ripped (confidence 1) [80444795] (AR v2)
Track 18 accurately ripped (confidence 1) [3DAF3ABF] (AR v2)

All tracks accurately ripped

End of status report

---- CUETools DB Plugin V2.1.3

[CTDB TOCID: 8uzQwf6xNVINjCXHoPtGZyYVxBs-] found
[db91d8db] (1/6) No match
[01ba6a10] (5/6) Accurately ripped

==== Log checksum 561E654D9CBF8A39BFFC0B23DCE4FF2EAD099D48FCF8C3B3B121ADA9241ED78C ====
Музыка / Lossless / Разное
СКАЧАТЬ БЕСПЛАТНО  [1.6 GB]


09
мар
2009

VA - Music For Striptease (4CD) [2008, pop]

Формат: MP3, tracks, 224kbps
Год выпуска: 2008
Страна: EU
Жанр: pop
Продолжительность: 06:38:57 CD11. Tito & Tarantula - After Dark (4:13) 2. Depeche Mode - Home (4:18) 3. Suzi Quatro - Born Making Noise (4:46) 4. Rob Zombie - Dragula(Si Non Oscillas, Noli (1:22) 5. David Usher - Black Black Heart (3:48) 6. Cradle Of Filth - Tonight In Flames (5:56) 7. Erwann Kermorvant & Axell - Don't Bring Me Down (4:25) 8. Mustafa Sandal - Isyankar (3:55) 9. Madonna - Nobody's Perfect (4:58) 10. Tori Amos - Sweet The Sting (4:15) 11. Shivaree - Goodnight Moon (4:04) 12. Jennifer Lopez - Step Into My World ( ...

11
янв
2011

Bill Haley - The Decca Years More (4CD) [1990, Rock'n'Roll, FLAC]

Формат: FLAC, (tracks + .cue), lossless
Год выпуска: 1990
Страна: USA
Жанр: Rock'n'Roll
Продолжительность: 04:40:32
Описание: The Decca Years & More - Disc One 01
Трэклист: 01. Rock Around The Clock 02:13 02. Thirteen Women 02:53 03. Shake, Rattle And Roll 02:31 04. A.B.C. Boogie 02:29 05. Happy Baby 02:35 06. Dim, Dim The Lights 02:31 07. Birht Of The Boogie 02:15 08. Mambo Rock 02:38 09. Two Hound Dogs 02:59 10. Razzle Dazzle 02:43 11. R-O-C-K 02:20 12. Rock A-Beatin' Boogie 02:19 13. The Saints Rock And Roll 03:26 14. Burn That Candle 02:46 15. See You Later Alligator 02:46 16. Paper Boy ...

06
мар
2016

Dio - Great Box (4CD) [Japan] [1991, Heavy Metal, FLAC]

Формат: FLAC, (image + .cue), lossless
Год выпуска: 1991
Страна: United States
Жанр: Heavy Metal
Продолжительность: 03:01:16
Описание: Holy Diver, 00 01. Stand Up & Shout 02. Holy Diver 03. Gypsy 04. Caught In The Middle 05. Don't Talk To Strangers 06. Straight Through The Heart 07. Invisible 08. Rainbow In The Dark 09. Shame On The Night LOGExact Audio Copy V0.99 prebeta 5 from 4. May 2009 Archivo Log de extracciones desde 15. Mayo 2014, 22:21 DIO / Holy Diver - Japan Great Box (PHCR-3121) Usar unidad : HL-DT-STDVDRAM GH22NS70 Adapter: 0 ID: 0 Modo de Lectura : Seguro Utilizar Corriente ...

03
дек
2012

Fleetwood Mac - 25 years: The Chain (4CD) [1992, Rock, Blues Rock, Pop Rock, Soft Rock, FLAC]

Формат: FLAC, (image + .cue), lossless
Год выпуска: 1992
Страна: USA
Жанр: Rock, Blues Rock, Pop Rock, Soft Rock
Продолжительность: 04:53:29
Описание: CD 1 01 01. Paper Doll 02. Love Shines 03. Stand Back (Live) 04. Crystal 05. Isn't It Midnight 06. Big Love 07. Everywhere 08. Affairs Of The Heart 09. Heart Of Stone 10. Sara 11. That's All For Everyone 12. Over My Head 13. Little Lies 14. Eyes Of The World 15. Oh Diane 16. In The Back Of My Mind 17. Make Me A Mask EACExact Audio Copy V1.0 beta 1 from 15. November 2010 EAC extraction logfile from 30. June 2012, 10:08 Fleetwood Mac / 25 Years ...

10
янв
2017

VA - City Of Dreams: A Collection Of New Orleans Music (4CD) [2007, Funk, Soul, Blues, FLAC]

VA - City Of Dreams A Collection Of New Orleans Music
Формат: FLAC, (tracks + .cue), lossless
Год выпуска: 2007
Страна: USA
Жанр: Funk, Soul, Blues
Продолжительность: 03:22:23
Описание: CD 1 Big Easy Blues 00 01. Al Johnson – Carnival Time 02. Marcia Ball, Irma Thomas & Tracy Nelson – Sing It 03. Chuck Carbo – Drawers Trouble 04. Johnny Adams – Just Because 05. Irma Thomas – Don't Mess With My Man 06. Eddie Bo – Check Mr. Popeye 07. Joe Jones – You Talk Too Much 08. Marcia Ball – Big Shot 09. Davell Crawford – I Bowed On My Knees 10. Ramsey McLean & Charmaine Neville – Drink Jax Beer 11. Ruth ...

29
апр
2011

Lindisfarne / The Charisma Years 1970-1973 (4CD Box Set) [2011, Classic Rock, Folk rock, FLAC]

Формат: FLAC, (image + .cue), lossless
Год выпуска: 2011
Страна: England
Жанр: Classic Rock, Folk rock
Продолжительность: 04:44:28
Описание: CD 1 01 1970 Nicely Out Of Tune 01. Lady Eleanor 02. Road To Kingdom Come 03. Winter Song 04. Turn A Deaf Ear 05. Clear White Light (Part 2) 06. We Can Swing Together 07. Alan In The River With Flowers 08. Down 09. The Things I Should Have Said 10. Jackhammer Blues 11. Scarecrow Song Bonus Tracks 12. Knackers Yard Blues (single b-side) 13. Nothing But The Marvellous Is Beautiful (single b-side) 14. From My Window (out take) 15. On My Own I Built A Brid ...

15
авг
2012

UFO - Live Throughout The Years (Limited Deluxe Edition 4CD Box Set) [2011, Hard Rock, Heavy Metal, FLAC]

Формат: FLAC, (image+ .cue), lossless
Год выпуска: 2011
Страна: UK
Жанр: Hard Rock, Heavy Metal
Продолжительность: 03:45:50
Описание: Disc One
Трeклист: 01. Intro - Can You Roll Her 03:52 02. Doctor Doctor 05:33 03. Oh My 04:28 04. Out On The Street 05:44 05. Highway Lady 05:17 06. I'm A Loser 04:25 07. Let It Roll 04:56 08. This Kids 04:23 09. Shoot Shoot 04:05 10. Rock Bottom 10:36 11. C'Mon Everybody 08:51 12. Boogie For George 09:16 13. All Or Nothing 04:30Log EACExact Audio Copy V1.0 beta 3 from 29. August 2011 EAC extraction logfile from 9. August 2012, 9:05 UFO / Live ...

25
июл
2016

Cockney Rejects - Hammer: The Classic Rock Years [Boxed Set 4CD] [2013, Punk, NWOBHM,Heavy Metal, Hard Rock, MP3]

Формат: MP3, tracks, 320kbps
Год выпуска: 2013
Страна: UK
Жанр: Punk, NWOBHM, Heavy Metal, Hard Rock
Продолжительность: 02:36:52
Описание: CD 101 - Way of the Rocker (04:39) 02 - City of Lights (04:17) 03 - Rock 'n' Roll Dream (04:41) 04 - Till the End of the Day (02:16) 05 - Some Play Dirty (03:47) 06 - Let Me Rock You (04:27) 07 - Victim of the Cheap Wine (04:14) 08 - Hell's a Long Way to Go (04:21) 09 - Heat of the Night (04:01)CD 201 - It Ain't Nothing (04:33) 02 - I Saw the Light (04:26) 03 - Back to the Start (06:02) 04 - I Can't Forget (04:12) 05 - Feeling My Way (03:29) 06 - Quiet Stor ...

17
ноя
2013

Y T - Earthquake the A M Years 1981-1985 (4CD) [2013, Rock, Hard Rock, MP3]

Формат: MP3, tracks, 153-245kbps [VBR]
Год выпуска: 2013
Страна: США
Жанр: Rock, Hard Rock
Продолжительность: 05:04:53
Описание: CD1 01. Hungry For Rock (Earthshaker 1981) 02. Dirty Girl (Earthshaker 1981) 03. Shake It Loose (Earthshaker 1981) 04. Squeeze (Earthshaker 1981) 05. Rescue Me (Earthshaker 1981) 06. Young And Tough (Earthshaker 1981) 07. Hurricane (Earthshaker 1981) 08. Let Me Go (Earthshaker 1981) 09. Knock You Out (Earthshaker 1981) 10. I Believe In You (Earthshaker 1981) 11. From The Moon (Black Tiger 1982) 12. Open Fire (Black Tiger 1982) 13. Don't Wanna (Black Tiger 1982) 14. H ...

22
янв
2011

Herman's Hermits Peter Noone - Into Something Good (The Mickie Most Years 1964-1972) 4CD [2008, Rock, WAVPack]

Формат: WAVPack, (image + .cue), lossless
Год выпуска: 1964-1972
Страна: UK
Жанр: Rock
Издатель: EMI Records Ltd.
Год издания: 2008
Продолжительность: 05:09:32
Описание: Disc One 01
Трэклист: 01. Heartbeat 02:52 02. Travelin' Light 02:35 03. I'll Never Dance Again 03:29 04. Walkin' With My Angel 02:24 05. Dream On 02:07 06. I Wonder 02:10 07. For Your Love 02:28 08. Don't Try To Hurt Me 02:08 09. Tell Me Baby 02:16 10. I'm Henry VIII, I Am 01:52 11. The End Of The World 03:04 12. Mrs. Brown You've Got A Lovely Daughter 02:48 13. I'm Into Something Good 02:35 14. Your Hand In Mine 02:02 15. S ...

17
сен
2012

Gentle Giant - I Lost My Head: The Chrysalis Years 1975-1980 (4CD Box Set) [2012, Rock, Progressive Rock, FLAC]

Формат: FLAC, (image+ .cue), lossless
Год выпуска: 2012
Страна: UK
Жанр: Rock, Progressive Rock
Продолжительность: 04:50:10
Описание: Disc One 01
Трeклист: 1975 Free Hand: 01. Just The Same 05:33 02. On Reflection 05:42 03. Free Hand 06:12 04. Time To Kill 05:07 05. His Last Voyage 06:26 06. Talybont 02:42 07. Mobile 05:02 Bonus Tracks: 08. 1976 Intro Tape (Previously Unreleased) 01:26 09. Just The Same (John Peel Session) 05:59 10. Free Hand (John Peel Session) 06:05 11. On Reflection (John Peel Session) 05:44 12. Give It Back (International 7" Mix) 03:46 13. I Lost My Head (7 ...

03
ноя
2010

VA - 8 Years Get Physical Music [2010, House, MP3]

Формат: MP3, tracks, 320kbps
Год выпуска: 2010
Страна: All World
Жанр: House
Продолжительность: 03:05:21
Описание: Unmixed: 01. M.A.N.D.E.A.R. - Buddies (6:05) 02. Lee Curtiss - The Disco Dub (6:11) 03. Andy Cato - Bassline Track (7:52) 04. Noa Siano - Deep Down (7:20) 05. Kris Wadsworth - It's Time (10:54) 06. Thomas Schumacher - You Got Me (6:20) 07. Emerson Todd vs. Tim Green - Make Me (9:01) 08. Steed Lord - You (Keine Musik Remix) (7:15) 09. Elektrochemie vs. Tiger Stripes - Pleasure Seeker vs Me & I (8:57) 10. Italoboyz - Stand Clear (7:29) 11. Booka Shade - Teenage Spaceman (Booka In ...

12
янв
2011

VA - 5 Years of Mutated Music Compilation [10.01.2011, House, MP3]

Формат: MP3, tracks, 320kbps
Год выпуска: 10.01.2011
Страна: All World
Жанр: House
Продолжительность: 02:16:38
Описание: 01. Nassau Feat. Krista - Rebound (Stereo Mutants Club Mix) (7:47) 02. Blaksonix Feat. Krista - Funeral (Si Gordon Remix) (5:53) 03. Flyingmice Feat. Nworks - Nightflight (Robert Rivera Dub) (6:48) 04. Christian Alvarez Feat. Tyrah Morena - Siempre Pra Sol (Original Flamenco Mix) (7:20) 05. Flyingmice Feat. Nworks - Nightflight (Steven Stone Instrumental) (5:39) 06. Ralphski Feat. Kristie - Keep Me Awake (Stereo Mutants Club Mix) (8:25) 07. Stereo Mutants Feat. Neve - Sams ...

02
авг
2013

VA - Asia Electronic. Great World Music [2013, Electronic, Downtempo, Chillout, MP3]

Формат: MP3, tracks, 320kbps
Год выпуска: 2013
Страна: All World
Жанр: Electronic, Downtempo, Chillout
Продолжительность: 04:09:36
Описание: Tracklist01. Aqualise - Dimi Dimi Dimi [07:52] 02. Brass - Indian River [04:59] 03. Nitin Sawhney - Sunset [04:45] 04. Asian Chill Art - Orient & Occident [04:26] 05. Kharma Frequency - Khandhalha [03:12] 06. Mcgrath James - Indian Princess [02:57] 07. Rajneesh - Tantra [04:50] 08. Sosiego Groove - Exotic Faith [03:42] 09. Transglobal Underground - Vanilka [04:41] 10. Buddha Sounds (Feat. Kantik & Shankari Lasya) - Dakhenha [03:30] 11. The Bhakt ...

12
июн
2011

VA - Zouk Classics: Celebrating 20 Years Of Music [2011, Soulful House, Vocal House, MP3]

Формат: MP3, tracks, 320kbps
Год выпуска: 2011
Страна: All World
Жанр: Soulful House, Vocal House
Продолжительность: 05:13:10
Описание: Tracklist 01. Ultra Nate - Free (Mood II Swing Extended Vocal Mix) [12:06] 02. Negrocan - Cada Vez (Grant Nelson Vocal Mix) [07:29] 03. Bah Samba - Reach Inside (Restless Soul Peaktime Mix) [09:31] 04. Donna Allen - He Is The Joy (Ubp Classic Mix) [09:09] 05. MAW presents India - To Be In Love (Maw 99 Mix) [11:53] 06. Johnny Corporate - Sunday Shoutin' (Daniel Bovie & Roy Rox Mix) [07:24] 07. Soulsearcher - Can't Get Enough (Vocal Club Mix) [06:50] 08. ...