07
июл
2018

Marisol - Vol. 4 (1972 - 1978) (2CD) [2014, Latin, Pop, FLAC]

Marisol - Vol. 4 (1972 - 1978) (2CD)
Формат: FLAC, (tracks + .cue), lossless
Год выпуска: 2014
Страна: Spain
Жанр: Latin, Pop
Продолжительность: 02:26:57
Описание:
CD1 01

1972 Marisol Y Los Bohemios Paraguayos
01. Paisajes De Catamarca
02. Pajarito Mañanero
03. No Volveré
04. La Pollera Colorá
05. Pajarito Amarillo
06. Qué Será De Ti
07. La Peregrineción
08. Paloma Negra
09. Caballo De Paso
10. Cuando Te Canses De Llorar (Acruérdate De Mí;)
11. Zamba De Mi Esperanza
12. El Gavilán
Singles
13. Quédate A Desayunar
14. Mañana Marcharé
15. Di Por Qué Los Hombres Lloran (Muddy River)
1973 Marisol
16. Ven, Ven (Rain, Rain, Rain)
17. Lo Tengo (I've Got It)
18. Todo Puede Suceder (It's All Gonna Happen)
19. Mi Propia Ley (Crunchy Granola Suite)
20. Vendo Un Amor (Peanuts)
21. Chica, No Llores (Wasn't It Great)
22. Hazme Regresar (Take Me Back)
23. Tu Forma De Amar (I Love Your...)
eac
Exact Audio Copy V1.3 from 2. September 2016

EAC extraction logfile from 28. December 2017, 22:15

Marisol / Vol. 4 (1972-1978) (CD 1)

Used drive : ATAPI iHAS122 E Adapter: 1 ID: 0

Read mode : Secure
Utilize accurate stream : Yes
Defeat audio cache : Yes
Make use of C2 pointers : No

Read offset correction : 6
Overread into Lead-In and Lead-Out : No
Fill up missing offset samples with silence : Yes
Delete leading and trailing silent blocks : No
Null samples used in CRC calculations : Yes
Used interface : Native Win32 interface for Win NT & 2000
Gap handling : Appended to previous track

Used output format : User Defined Encoder
Selected bitrate : 1024 kBit/s
Quality : High
Add ID3 tag : No
Command line compressor : C:Program Files (x86)Exact Audio CopyFlacflac.exe
Additional command line options : -8 -V -T "ARTIST=%artist%" -T "TITLE=%title%" -T "ALBUM=%albumtitle%" -T "DATE=%year%" -T "TRACKNUMBER=%tracknr%" -T "GENRE=%genre%" -T "PERFORMER=%albuminterpret%" -T "COMPOSER=%composer%" %haslyrics%--tag-from-file=LYRICS="%lyricsfile%"%haslyrics% -T "ALBUMARTIST=%albumartist%" -T "DISCNUMBER=%cdnumber%" -T "TOTALDISCS=%totalcds%" -T "TOTALTRACKS=%numtracks%" -T "COMMENT=%comment%" %source% -o %dest%

TOC of the extracted CD

Track | Start | Length | Start sector | End sector
---------------------------------------------------------
1 | 0:00.00 | 3:28.06 | 0 | 15605
2 | 3:28.06 | 3:11.11 | 15606 | 29941
3 | 6:39.17 | 3:49.36 | 29942 | 47152
4 | 10:28.53 | 2:08.64 | 47153 | 56816
5 | 12:37.42 | 2:22.41 | 56817 | 67507
6 | 15:00.08 | 3:18.25 | 67508 | 82382
7 | 18:18.33 | 2:20.51 | 82383 | 92933
8 | 20:39.09 | 4:27.01 | 92934 | 112959
9 | 25:06.10 | 3:09.00 | 112960 | 127134
10 | 28:15.10 | 3:11.43 | 127135 | 141502
11 | 31:26.53 | 3:35.01 | 141503 | 157628
12 | 35:01.54 | 2:25.57 | 157629 | 168560
13 | 37:27.36 | 4:17.42 | 168561 | 187877
14 | 41:45.03 | 3:37.32 | 187878 | 204184
15 | 45:22.35 | 3:19.56 | 204185 | 219165
16 | 48:42.16 | 3:49.71 | 219166 | 236411
17 | 52:32.12 | 3:56.17 | 236412 | 254128
18 | 56:28.29 | 3:26.65 | 254129 | 269643
19 | 59:55.19 | 3:36.65 | 269644 | 285908
20 | 63:32.09 | 3:22.52 | 285909 | 301110
21 | 66:54.61 | 3:15.29 | 301111 | 315764
22 | 70:10.15 | 2:39.64 | 315765 | 327753
23 | 72:50.04 | 3:18.14 | 327754 | 342617

Track 1

Filename D:Torrents compartidosRips EACMarisol - Vol. 4 (1972-1978) (CD 1) (2014) [FLAC]1 - Paisajes de Calamarca.wav

Pre-gap length 0:00:02.00

Peak level 98.2 %
Extraction speed 5.4 X
Track quality 100.0 %
Test CRC A7DD6354
Copy CRC A7DD6354
Track not present in AccurateRip database
Copy OK

Track 2

Filename D:Torrents compartidosRips EACMarisol - Vol. 4 (1972-1978) (CD 1) (2014) [FLAC]2 - Pajarito mañanero.wav

Pre-gap length 0:00:01.00

Peak level 98.2 %
Extraction speed 5.8 X
Track quality 100.0 %
Test CRC E4FD1392
Copy CRC E4FD1392
Track not present in AccurateRip database
Copy OK

Track 3

Filename D:Torrents compartidosRips EACMarisol - Vol. 4 (1972-1978) (CD 1) (2014) [FLAC]3 - No volveré.wav

Pre-gap length 0:00:01.00

Peak level 98.2 %
Extraction speed 6.3 X
Track quality 100.0 %
Test CRC 73B1D533
Copy CRC 73B1D533
Track not present in AccurateRip database
Copy OK

Track 4

Filename D:Torrents compartidosRips EACMarisol - Vol. 4 (1972-1978) (CD 1) (2014) [FLAC]4 - La pollera colorá.wav

Pre-gap length 0:00:01.00

Peak level 98.2 %
Extraction speed 6.0 X
Track quality 100.0 %
Test CRC CF21D3F5
Copy CRC CF21D3F5
Track not present in AccurateRip database
Copy OK

Track 5

Filename D:Torrents compartidosRips EACMarisol - Vol. 4 (1972-1978) (CD 1) (2014) [FLAC]5 - Pájaro amarillo.wav

Pre-gap length 0:00:01.00

Peak level 98.2 %
Extraction speed 6.5 X
Track quality 100.0 %
Test CRC 5CDFD647
Copy CRC 5CDFD647
Track not present in AccurateRip database
Copy OK

Track 6

Filename D:Torrents compartidosRips EACMarisol - Vol. 4 (1972-1978) (CD 1) (2014) [FLAC]6 - Qué será de ti.wav

Pre-gap length 0:00:01.00

Peak level 98.2 %
Extraction speed 7.2 X
Track quality 100.0 %
Test CRC 66D7A2EC
Copy CRC 66D7A2EC
Track not present in AccurateRip database
Copy OK

Track 7

Filename D:Torrents compartidosRips EACMarisol - Vol. 4 (1972-1978) (CD 1) (2014) [FLAC]7 - La peregrinación.wav

Pre-gap length 0:00:01.00

Peak level 98.2 %
Extraction speed 6.8 X
Track quality 100.0 %
Test CRC CDDC1FF0
Copy CRC CDDC1FF0
Track not present in AccurateRip database
Copy OK

Track 8

Filename D:Torrents compartidosRips EACMarisol - Vol. 4 (1972-1978) (CD 1) (2014) [FLAC]8 - Paloma negra.wav

Pre-gap length 0:00:01.00

Peak level 98.2 %
Extraction speed 7.8 X
Track quality 100.0 %
Test CRC 061092F4
Copy CRC 061092F4
Track not present in AccurateRip database
Copy OK

Track 9

Filename D:Torrents compartidosRips EACMarisol - Vol. 4 (1972-1978) (CD 1) (2014) [FLAC]9 - Caballo de paso.wav

Pre-gap length 0:00:01.00

Peak level 98.2 %
Extraction speed 7.8 X
Track quality 100.0 %
Test CRC 228BE030
Copy CRC 228BE030
Track not present in AccurateRip database
Copy OK

Track 10

Filename D:Torrents compartidosRips EACMarisol - Vol. 4 (1972-1978) (CD 1) (2014) [FLAC]10 - Cuando te canses de llorar (acuérdate de mí;).wav

Pre-gap length 0:00:01.00

Peak level 98.2 %
Extraction speed 6.7 X
Track quality 99.9 %
Test CRC E2A563C5
Copy CRC E2A563C5
Track not present in AccurateRip database
Copy OK

Track 11

Filename D:Torrents compartidosRips EACMarisol - Vol. 4 (1972-1978) (CD 1) (2014) [FLAC]11 - Zamba de mi esperanza.wav

Pre-gap length 0:00:01.00

Peak level 98.2 %
Extraction speed 8.5 X
Track quality 100.0 %
Test CRC 4E5A4778
Copy CRC 4E5A4778
Track not present in AccurateRip database
Copy OK

Track 12

Filename D:Torrents compartidosRips EACMarisol - Vol. 4 (1972-1978) (CD 1) (2014) [FLAC]12 - El gavilán.wav

Pre-gap length 0:00:01.00

Peak level 98.2 %
Extraction speed 6.2 X
Track quality 99.9 %
Test CRC 0AC947C2
Copy CRC 0AC947C2
Track not present in AccurateRip database
Copy OK

Track 13

Filename D:Torrents compartidosRips EACMarisol - Vol. 4 (1972-1978) (CD 1) (2014) [FLAC]13 - Quédate a desayunar.wav

Pre-gap length 0:00:01.00

Peak level 98.2 %
Extraction speed 9.1 X
Track quality 100.0 %
Test CRC 0143CFDC
Copy CRC 0143CFDC
Track not present in AccurateRip database
Copy OK

Track 14

Filename D:Torrents compartidosRips EACMarisol - Vol. 4 (1972-1978) (CD 1) (2014) [FLAC]14 - Mañana marcharé.wav

Pre-gap length 0:00:01.00

Peak level 98.2 %
Extraction speed 7.5 X
Track quality 99.9 %
Test CRC F17041A8
Copy CRC F17041A8
Track not present in AccurateRip database
Copy OK

Track 15

Filename D:Torrents compartidosRips EACMarisol - Vol. 4 (1972-1978) (CD 1) (2014) [FLAC]15 - Di por qué los hombres lloran (Muddy river).wav

Pre-gap length 0:00:01.00

Peak level 98.2 %
Extraction speed 9.4 X
Track quality 100.0 %
Test CRC 782C6037
Copy CRC 782C6037
Track not present in AccurateRip database
Copy OK

Track 16

Filename D:Torrents compartidosRips EACMarisol - Vol. 4 (1972-1978) (CD 1) (2014) [FLAC]16 - Ven, ven (Rain, rain, rain).wav

Pre-gap length 0:00:01.00

Peak level 93.9 %
Extraction speed 9.8 X
Track quality 100.0 %
Test CRC C21D1E9A
Copy CRC C21D1E9A
Track not present in AccurateRip database
Copy OK

Track 17

Filename D:Torrents compartidosRips EACMarisol - Vol. 4 (1972-1978) (CD 1) (2014) [FLAC]17 - Lo tengo (I've got it).wav

Pre-gap length 0:00:01.00

Peak level 98.2 %
Extraction speed 9.9 X
Track quality 100.0 %
Test CRC 30479C32
Copy CRC 30479C32
Track not present in AccurateRip database
Copy OK

Track 18

Filename D:Torrents compartidosRips EACMarisol - Vol. 4 (1972-1978) (CD 1) (2014) [FLAC]18 - Todo puede suceder (It's all gonna happen).wav

Pre-gap length 0:00:01.00

Peak level 98.2 %
Extraction speed 10.2 X
Track quality 100.0 %
Test CRC B7816C7D
Copy CRC B7816C7D
Track not present in AccurateRip database
Copy OK

Track 19

Filename D:Torrents compartidosRips EACMarisol - Vol. 4 (1972-1978) (CD 1) (2014) [FLAC]19 - Mi propia ley (Crunchy granola suite).wav

Pre-gap length 0:00:01.00

Peak level 98.2 %
Extraction speed 10.4 X
Track quality 100.0 %
Test CRC CC63871D
Copy CRC CC63871D
Track not present in AccurateRip database
Copy OK

Track 20

Filename D:Torrents compartidosRips EACMarisol - Vol. 4 (1972-1978) (CD 1) (2014) [FLAC]20 - Vendo un amor (Peanuts).wav

Pre-gap length 0:00:01.00

Peak level 98.2 %
Extraction speed 10.4 X
Track quality 100.0 %
Test CRC B542D84A
Copy CRC B542D84A
Track not present in AccurateRip database
Copy OK

Track 21

Filename D:Torrents compartidosRips EACMarisol - Vol. 4 (1972-1978) (CD 1) (2014) [FLAC]21 - Chica, no llores (Wasn't it great).wav

Pre-gap length 0:00:01.00

Peak level 98.2 %
Extraction speed 10.8 X
Track quality 100.0 %
Test CRC CA19D228
Copy CRC CA19D228
Track not present in AccurateRip database
Copy OK

Track 22

Filename D:Torrents compartidosRips EACMarisol - Vol. 4 (1972-1978) (CD 1) (2014) [FLAC]22 - Hazme regresar (Take me back).wav

Pre-gap length 0:00:01.00

Peak level 98.2 %
Extraction speed 10.5 X
Track quality 100.0 %
Test CRC E6A50071
Copy CRC E6A50071
Track not present in AccurateRip database
Copy OK

Track 23

Filename D:Torrents compartidosRips EACMarisol - Vol. 4 (1972-1978) (CD 1) (2014) [FLAC]23 - Tu forma de amar (I love your...).wav

Pre-gap length 0:00:01.00

Peak level 98.2 %
Extraction speed 8.4 X
Track quality 99.9 %
Test CRC BE97DD24
Copy CRC BE97DD24
Track not present in AccurateRip database
Copy OK

None of the tracks are present in the AccurateRip database

No errors occurred

End of status report

---- CUETools DB Plugin V2.1.6

[CTDB TOCID: MFjWlbSlTuZ0XE9_siNImVl_5vM-] disk not present in database
Submit result: MFjWlbSlTuZ0XE9_siNImVl_5vM- has been uploaded

==== Log checksum BBA122D151538C97CE66A340B3BDEB465439627670B823698BCA9AFAE1A1514A ====
CD2 01

1976 Háblame Del Mar, Marinero
01. Háblame Del Mar, Marinero
02. Dile Que Vuelva
03. Ayúdame A Pasar La Noche
04. Enamorado De Ella
05. Si Fuera Mio Tu Amor
06. Su Mundo Era Aquello
07. Esa Es Mi Felicidad
08. Veintiocho Años
09. Quiero Que Crezca Contigo
10. Esperaré A Mañana
1978 Marisol
11. Si No Te Quisiera Tanto
12. Ser Gaviota
13. Las Luces Del Amanecer
14. Tengo Ganas
15. Alberti, Poeta Marinero
16 Balada Para La Soledad De Mi Guitarra
17. Tú
18. Mirándome
19. Y Ahora Que Te Has Ido
20. Pues Cada Cuerpo
eac
Exact Audio Copy V1.3 from 2. September 2016

EAC extraction logfile from 28. December 2017, 23:19

Marisol / Vol. 4 (1972-1978) (CD 2)

Used drive : ATAPI iHAS122 E Adapter: 1 ID: 0

Read mode : Secure
Utilize accurate stream : Yes
Defeat audio cache : Yes
Make use of C2 pointers : No

Read offset correction : 6
Overread into Lead-In and Lead-Out : No
Fill up missing offset samples with silence : Yes
Delete leading and trailing silent blocks : No
Null samples used in CRC calculations : Yes
Used interface : Native Win32 interface for Win NT & 2000
Gap handling : Appended to previous track

Used output format : User Defined Encoder
Selected bitrate : 1024 kBit/s
Quality : High
Add ID3 tag : No
Command line compressor : C:Program Files (x86)Exact Audio CopyFlacflac.exe
Additional command line options : -8 -V -T "ARTIST=%artist%" -T "TITLE=%title%" -T "ALBUM=%albumtitle%" -T "DATE=%year%" -T "TRACKNUMBER=%tracknr%" -T "GENRE=%genre%" -T "PERFORMER=%albuminterpret%" -T "COMPOSER=%composer%" %haslyrics%--tag-from-file=LYRICS="%lyricsfile%"%haslyrics% -T "ALBUMARTIST=%albumartist%" -T "DISCNUMBER=%cdnumber%" -T "TOTALDISCS=%totalcds%" -T "TOTALTRACKS=%numtracks%" -T "COMMENT=%comment%" %source% -o %dest%

TOC of the extracted CD

Track | Start | Length | Start sector | End sector
---------------------------------------------------------
1 | 0:00.00 | 3:45.42 | 0 | 16916
2 | 3:45.42 | 3:50.43 | 16917 | 34209
3 | 7:36.10 | 3:50.10 | 34210 | 51469
4 | 11:26.20 | 3:37.56 | 51470 | 67800
5 | 15:04.01 | 3:41.59 | 67801 | 84434
6 | 18:45.60 | 3:31.50 | 84435 | 100309
7 | 22:17.35 | 2:42.39 | 100310 | 112498
8 | 24:59.74 | 3:01.14 | 112499 | 126087
9 | 28:01.13 | 2:28.68 | 126088 | 137255
10 | 30:30.06 | 3:05.03 | 137256 | 151133
11 | 33:35.09 | 2:54.73 | 151134 | 164256
12 | 36:30.07 | 4:05.33 | 164257 | 182664
13 | 40:35.40 | 2:36.47 | 182665 | 194411
14 | 43:12.12 | 4:24.48 | 194412 | 214259
15 | 47:36.60 | 3:25.51 | 214260 | 229685
16 | 51:02.36 | 4:38.47 | 229686 | 250582
17 | 55:41.08 | 3:36.46 | 250583 | 266828
18 | 59:17.54 | 3:43.25 | 266829 | 283578
19 | 63:01.04 | 3:30.49 | 283579 | 299377
20 | 66:31.53 | 4:16.66 | 299378 | 318643

Track 1

Filename D:Torrents compartidosRips EACMarisol - Vol. 4 (1972-1978) (CD 2) (2014) [FLAC]1 - Háblame del mar, marinero.wav

Pre-gap length 0:00:02.00

Peak level 98.2 %
Extraction speed 1.9 X
Track quality 100.0 %
Test CRC 32077F4F
Copy CRC 32077F4F
Track not present in AccurateRip database
Copy OK

Track 2

Filename D:Torrents compartidosRips EACMarisol - Vol. 4 (1972-1978) (CD 2) (2014) [FLAC]2 - Dile que vuelva.wav

Pre-gap length 0:00:01.98

Peak level 98.2 %
Extraction speed 2.1 X
Track quality 100.0 %
Test CRC 886080C9
Copy CRC 886080C9
Track not present in AccurateRip database
Copy OK

Track 3

Filename D:Torrents compartidosRips EACMarisol - Vol. 4 (1972-1978) (CD 2) (2014) [FLAC]3 - Ayúdame a pasar la noche.wav

Pre-gap length 0:00:02.00

Peak level 98.2 %
Extraction speed 2.3 X
Track quality 100.0 %
Test CRC D41A96E2
Copy CRC D41A96E2
Track not present in AccurateRip database
Copy OK

Track 4

Filename D:Torrents compartidosRips EACMarisol - Vol. 4 (1972-1978) (CD 2) (2014) [FLAC]4 - Enamorado de ella.wav

Pre-gap length 0:00:02.00

Peak level 98.2 %
Extraction speed 2.4 X
Track quality 100.0 %
Test CRC FA8D1765
Copy CRC FA8D1765
Track not present in AccurateRip database
Copy OK

Track 5

Filename D:Torrents compartidosRips EACMarisol - Vol. 4 (1972-1978) (CD 2) (2014) [FLAC]5 - Si fuera mío tu amor.wav

Pre-gap length 0:00:02.00

Peak level 98.2 %
Extraction speed 1.8 X
Track quality 99.9 %
Test CRC 258AD03B
Copy CRC 258AD03B
Track not present in AccurateRip database
Copy OK

Track 6

Filename D:Torrents compartidosRips EACMarisol - Vol. 4 (1972-1978) (CD 2) (2014) [FLAC]6 - Su mundo era aquello.wav

Pre-gap length 0:00:02.00

Peak level 98.2 %
Extraction speed 2.7 X
Track quality 100.0 %
Test CRC 0C3E707B
Copy CRC 0C3E707B
Track not present in AccurateRip database
Copy OK

Track 7

Filename D:Torrents compartidosRips EACMarisol - Vol. 4 (1972-1978) (CD 2) (2014) [FLAC]7 - Esa es mi felicidad.wav

Pre-gap length 0:00:02.00

Peak level 98.2 %
Extraction speed 2.7 X
Track quality 100.0 %
Test CRC FA467738
Copy CRC FA467738
Track not present in AccurateRip database
Copy OK

Track 8

Filename D:Torrents compartidosRips EACMarisol - Vol. 4 (1972-1978) (CD 2) (2014) [FLAC]8 - Veintiocho años.wav

Pre-gap length 0:00:02.00

Peak level 98.2 %
Extraction speed 2.8 X
Track quality 100.0 %
Test CRC DBEA3BEF
Copy CRC DBEA3BEF
Track not present in AccurateRip database
Copy OK

Track 9

Filename D:Torrents compartidosRips EACMarisol - Vol. 4 (1972-1978) (CD 2) (2014) [FLAC]9 - Quiero que crezca contigo.wav

Pre-gap length 0:00:02.00

Peak level 98.2 %
Extraction speed 2.8 X
Track quality 100.0 %
Test CRC 4DC52B6A
Copy CRC 4DC52B6A
Track not present in AccurateRip database
Copy OK

Track 10

Filename D:Torrents compartidosRips EACMarisol - Vol. 4 (1972-1978) (CD 2) (2014) [FLAC]10 - Esperaré a mañana.wav

Pre-gap length 0:00:02.00

Peak level 98.2 %
Extraction speed 3.0 X
Track quality 100.0 %
Test CRC 43631E00
Copy CRC 43631E00
Track not present in AccurateRip database
Copy OK

Track 11

Filename D:Torrents compartidosRips EACMarisol - Vol. 4 (1972-1978) (CD 2) (2014) [FLAC]11 - Si no te quisiera tanto.wav

Pre-gap length 0:00:02.00

Peak level 98.2 %
Extraction speed 2.1 X
Track quality 99.9 %
Test CRC CB9F9BFC
Copy CRC CB9F9BFC
Track not present in AccurateRip database
Copy OK

Track 12

Filename D:Torrents compartidosRips EACMarisol - Vol. 4 (1972-1978) (CD 2) (2014) [FLAC]12 - Ser gaviota.wav

Pre-gap length 0:00:02.00

Peak level 98.2 %
Extraction speed 3.4 X
Track quality 100.0 %
Test CRC F91EF4D3
Copy CRC F91EF4D3
Track not present in AccurateRip database
Copy OK

Track 13

Filename D:Torrents compartidosRips EACMarisol - Vol. 4 (1972-1978) (CD 2) (2014) [FLAC]13 - Las luces del amanecer.wav

Pre-gap length 0:00:02.00

Peak level 98.2 %
Extraction speed 3.2 X
Track quality 100.0 %
Test CRC EE42808E
Copy CRC EE42808E
Track not present in AccurateRip database
Copy OK

Track 14

Filename D:Torrents compartidosRips EACMarisol - Vol. 4 (1972-1978) (CD 2) (2014) [FLAC]14 - Tengo ganas.wav

Pre-gap length 0:00:02.00

Peak level 98.2 %
Extraction speed 3.5 X
Track quality 100.0 %
Test CRC 21AB45F0
Copy CRC 21AB45F0
Track not present in AccurateRip database
Copy OK

Track 15

Filename D:Torrents compartidosRips EACMarisol - Vol. 4 (1972-1978) (CD 2) (2014) [FLAC]15 - Alberti, poeta marinero.wav

Pre-gap length 0:00:02.00

Peak level 98.2 %
Extraction speed 3.6 X
Track quality 100.0 %
Test CRC E81A4F49
Copy CRC E81A4F49
Track not present in AccurateRip database
Copy OK

Track 16

Filename D:Torrents compartidosRips EACMarisol - Vol. 4 (1972-1978) (CD 2) (2014) [FLAC]16 - Balada para la soledad de mi guitarra.wav

Pre-gap length 0:00:02.00

Peak level 98.2 %
Extraction speed 3.8 X
Track quality 100.0 %
Test CRC 0B743307
Copy CRC 0B743307
Track not present in AccurateRip database
Copy OK

Track 17

Filename D:Torrents compartidosRips EACMarisol - Vol. 4 (1972-1978) (CD 2) (2014) [FLAC]17 - Tú.wav

Pre-gap length 0:00:02.00

Peak level 98.2 %
Extraction speed 3.8 X
Track quality 100.0 %
Test CRC CC36B4D0
Copy CRC CC36B4D0
Track not present in AccurateRip database
Copy OK

Track 18

Filename D:Torrents compartidosRips EACMarisol - Vol. 4 (1972-1978) (CD 2) (2014) [FLAC]18 - Mirándome.wav

Pre-gap length 0:00:02.00

Peak level 98.2 %
Extraction speed 3.9 X
Track quality 100.0 %
Test CRC 4B3D08AA
Copy CRC 4B3D08AA
Track not present in AccurateRip database
Copy OK

Track 19

Filename D:Torrents compartidosRips EACMarisol - Vol. 4 (1972-1978) (CD 2) (2014) [FLAC]19 - Y ahora que te has ido.wav

Pre-gap length 0:00:02.00

Peak level 98.2 %
Extraction speed 3.9 X
Track quality 100.0 %
Test CRC D06854B5
Copy CRC D06854B5
Track not present in AccurateRip database
Copy OK

Track 20

Filename D:Torrents compartidosRips EACMarisol - Vol. 4 (1972-1978) (CD 2) (2014) [FLAC]20 - Pues cada cuerpo.wav

Pre-gap length 0:00:02.00

Peak level 98.2 %
Extraction speed 4.1 X
Track quality 100.0 %
Test CRC F684440C
Copy CRC F684440C
Track not present in AccurateRip database
Copy OK

None of the tracks are present in the AccurateRip database

No errors occurred

End of status report

---- CUETools DB Plugin V2.1.6

[CTDB TOCID: jA67LyLbX4JSibpa9T0bY344RDg-] disk not present in database
Submit result: jA67LyLbX4JSibpa9T0bY344RDg- has been uploaded

==== Log checksum 3AA5298C6D028F55600EA97DDA8452862D032666303C9E690AB7EA54541FCE0D ====
Музыка / Lossless / Разное
СКАЧАТЬ БЕСПЛАТНО  [1.0 GB]


07
июл
2018

Marisol - Vol. 3 (Todas Sus Grabaciones) (1965 - 1972) (2CD) [2012, Pop, Vocal, Schlager, FLAC]

Формат: FLAC, (tracks + .cue), lossless
Год выпуска: 2012
Страна: Spain
Жанр: Pop, Vocal, Schlager
Продолжительность: 02:24:25
Описание: CD1 01 01. El cochecito 02. Il mio mondo e qui 03. Cabriola 04. Ya no me importas nada 05. Amor y juventud (Wakaite Subarashi) 06. Yo a ti también 07. La boda 08. Tiene la Tarara 09. Los maletillas 10. Johnny 11. Mi carretera 12. Yo no quiero ser torero 13. Tic-tac 14. La nieve 15. Dos unidos 16. Colores 17. Si me das la mano 18. Corazón contento 19. Perdóname 20. Somos novios 21. Doce meses 22. Cuando me muera 23. Sin el sol 24. Tú y tus ...

09
июл
2018

Marisol - Vol. 5 [2015, Latin, Pop, FLAC]

Формат: FLAC, (tracks + .cue), lossless
Год выпуска: 2015
Страна: Spain
Жанр: Latin, Pop
Продолжительность: 01:18:46
Описание: Треклист 1979 Galería de Perpetuas - Canciones para mujeres 01. Ay, Rosa (3:24) 02. En la bodega del barco (2:46) 03. Comprada (3:51) 04. Labores de bastido (3:59) 05. La siesta (3:31) 06. Cuestecita de Moyano (2:23) 07 Duerma Ud. tranquila madre (3:30) 08. Nana 1830 (4:07) 09. La trenza (2:50) 10 Galería de perpetuas (5:09) 11. Concierto perejil (4:43) 1983 Clima 12. Una mujer enamorada (4:48 ) 13. Te amo así, te odio así (2:56) 14. Tarde o temp ...

07
мая
2015

VA - RockPop 1978 - 1981 / Best Videos Vol.4 [2013, Rock, Pop, TVRip]

Формат: TVRip, AVI, XviD, MP3
Песня: Best Videos Vol.4
Жанр: Rock, Pop
Продолжительность: 01:48:44
Год выпуска: 2013
Видео: 720x576 (1.25:1), 25 fps, XviD build 50 ~3006 kbps avg, 0.29 bit/pixel
Аудио: 48 kHz, MPEG Layer 3, 2 ch, ~192.00 kbps avg
Доп. информация: Передача RockPop выходила на канале ZDF немецкого телевидения с 1978 по 1981 год и была одной из немногих чисто музыкальных программ. Ведущий Christian Simon представлял артистов, коротко рассказывал о них, часто беседовал с музыкантами после их выступления. И всё. Никаких скетчей, игр со зрителями и викторин - только музыка! Я в ...

24
мар
2013

VA RockPop - The Best 1978 - 1981 Vol 4&5 [2013, Rock, 2xDVD5]

Формат: 2xDVD5, DVD Video, MPEG2, AC3
Песня: The Best 1978 - 1981
Жанр: Rock
Продолжительность: 03:30:36
Год выпуска: 2013 DVD 1
Видео: 720 x 576 (PAL 4:3) at 25.000 fps, MPEG2 Video at 5925 Kbps, 0.571 bit/pixel
Аудио: Dolby AC3, 2 ch, 192 Kbps, 48.0 KHz DVD 2
Видео: 720 x 576 (PAL 4:3) at 25.000 fps, MPEG2 Video at 6597 Kbps, 0.636 bit/pixel
Аудио: Dolby AC3, 2 ch, 192 Kbps, 48.0 KHz
Доп. информация: Треклист Vol. -4 01. Eric Burdon - Rocky (1978) 02. Emerson, Lake & Palmer - Tiger In A Spotlight (1978) 03. Eloy - Decay Of Logos (1978) 04. Inga Rumpf - Jukebox Palace (1978) 05. Jet ...

05
апр
2012

Chris Rea - The Journey 1978-2009 (2CD) [2011, Blues, Blues-Rock, FLAC]

Формат: FLAC, (tracks + .cue), lossless
Год выпуска: 2011
Страна: UK
Жанр: Blues, Blues-Rock
Продолжительность: 02:36:55
Описание: Disc One (01
Трeклист: 01. Let's Dance 04:06 02. On The Beach 06:51 03. Driving Home For Christmas 04:014 04. I Can Hear Your Heartbeat 03:26 05. Julia 03:54 06. Stainsby Girls 03:52 07. Come So Far, Yet Still So Far To Go 04:13 08. God's Great Banana Skin 05:18 09. Josephine (French Edit) 03:56 10. Texas 04:00 11. Working On It 04:24 12. Heaven 04:12 13. Candles 04:44 14. Shamrock Diaires 04:13 15. Blue Street 07:08 16. Ace Of Hearts 04:53 17. ...

08
окт
2011

Grateful Dead - Rocking The Cradle: Egypt 1978 (2CD) [2008, Country Rock, Psychedelic Rock, Classic Rock, FLAC]

Формат: FLAC, (image + .cue), lossless
Год выпуска: 2008
Страна: USA
Жанр: Country Rock, Psychedelic Rock, Classic Rock
Продолжительность: 02:25:44
Описание: 2008 - CD1 Rocking The Cradle 01. Jack Straw (live 9/15/78, at Gizah Sound & Light Theater, Cairo, Egypt) [0:06:44.15] 02. Row Jimmy (live 9/16/78, at Gizah Sound & Light Theater, Cairo, Egypt) [0:11:46.35] 03. New, New Minglewood Blues (live 9/16/78, at Gizah Sound & Light Theater, Cairo, Egypt) [0:06:26.29] 04. Candyman (live 9/16/78, at Gizah Sound & Light Theater, Cairo, Egypt) [0:07:29.00] 05. Looks Like Rain (live 9/16/78, at Gizah ...

20
июл
2011

Whitesnake - The Silver Anniversary Collection 1978 - 2003 (2CD) [2003, Hard Rock, FLAC]

Формат: FLAC, (image + .cue), lossless
Год выпуска: 2003
Страна: UK
Жанр: Hard Rock
Продолжительность: 02:38:06
Описание:
Трэклист: CD1 - 01 01. Fool For Your Loving [0:04:18.72] 02. Don't Break My Heart Again [0:04:04.05] 03. Hit An' Run [0:03:23.45] 04. The Time Is Right For Love [0:03:28.10] 05. Love Ain't No Stranger [0:04:14.45] 06. Too Many Tears [0:05:48.23] 07. Pride And Joy [0:03:34.05] 08. Victim Of Love [0:03:35.17] 09. Judgement Day [0:05:14.38] 10. Is This Love [0:04:43.32] 11. Take A Look At Yourself [0:04:40.60] 12. Straight For The Heart [0:03:38.48] 13. Now You're Gone [0:04 ...

06
ноя
2010

Outer Limits Jeff Christie 1966-1968, 1978-1980 (2CD) [2008, Rock, Pop-Rock, FLAC]

Формат: FLAC, (image + .cue), lossless
Год выпуска: 2008
Страна: UK
Жанр: Rock, Pop-Rock
Продолжительность: 02:29:57
Описание: Disc One - Outer Limits - Outer Limits (1966-1968) 01
Трэклист: 01. When The Work Is Through 02:34 02. Just One More Chance 03:02 03. Help Me Please 02:28 04. Great Train Robbery 03:40 05. Sweet Freedom 02:54 06. The Dream 03:23 07. Stop 03:48 08. Everything I Touch 03:10 09. Any Day Now 03:35 10. See It My Way 03:14 11. Funny Clown 02:51 12. Listen 03:18 13. Paper Jake 03:23 14. Days Of Spring 02:46 15. Epitaph For A Nonentity 03:29 16. Man In The Middle Of Nowhere ...

11
сен
2013

Status Quo - 5 Albums Mini LP SHM-CD 1972-1976 (Limited Japanes Edition Remastered, 2CD) [2013, Classic Rock, MP3]

Формат: MP3, tracks, 320kbps
Год выпуска: 2013
Страна: UK
Жанр: Classic Rock
Продолжительность: 04:09:35
Описание: CD1 1972 Piledriver 00 01. Don't Waste My Time (Rossi, Young) 02. Oh! Baby (Rossi, Parfitt) 03. A Year (Lancaster, Frost) 04. Unspoken Words (Rossi, Young) 05. Big Fat Mama (Rossi, Parfitt) 06. Paper Plane (Rossi, Young) 07. All The Reasons (Parfitt, Lancaster) 08. Roadhouse Blues (Morrison, Densmore, Krieger, Manzarek) 09. Don't Waste My Time (Live) (Rossi, Young) (Bonus Track)CD2 1973 Hello! 00 01. Roll Over Lay Down (Rossi, Parfitt, Lancaster, Coghlan, Young) 02. Claudie (Ross ...

08
апр
2016

VA - Metal For The Masses Vol. 4 (2CD) [2005, Stoner Rock, Nu Metal, Metalcore, Hardcore, Hard Rock, Heavy Metal, Doom Metal, Death Metal, Black Metal, FLAC]

Формат: FLAC, (image + .cue), lossless
Год выпуска: 2005
Страна: USA
Жанр: Stoner Rock, Nu Metal, Metalcore, Hardcore, Hard Rock, Heavy Metal, Doom Metal, Death Metal, Black Metal
Продолжительность: 02:32:37
Описание: CD 1 01 01. God Forbid - The End Of The World (Edit) 02. Manntis - Weathered Soul 03. Diecast - These Days 04. Brand New Sin - Days Are Numbered (Edit) 05. Agents Of Man - Without A Trace 06. Shadows Fall - Enlightened By The Cold 07. Arch Enemy - Nemesis 08. The Haunted - No Compromise 09. Behemoth - Slaves Shall Serve 10. Old Man's Child - Enslaved And Condemned 11. Naglfar - P ...

28
мар
2008

VA - Extrem Bass Vol 4 - 2CD (2008)

Страна: U.K.
Год выпуска: 2008
Жанр: techno
Продолжительность: 157min
Формат: MP3
Битрейт аудио: 320 kbps
Трэклист: CD1 01. Headhunterz - Forever as One 02. Zatox and Activator - Cant Stop 03. The Beholder Meets Zany - Euphoria 04. Hardstyle Masterz - Age of Reverse Bass (Activator Remix) 05. T4T4NK4 - Lets Rock (Tat and Zat Remix) 06. Showtek Feat. DV8 - Shout Out (Donkey Rollers Remix) 07. Bulldozzer Project - Arise (Bulldozzer Remix) 08. Trilok and Chiren Vs. Alpha2 - Straight to Hell 09. A-Lusion Feat. Renegade - The 4 Elements 10. K-Traxx - Straight on 2007 11. Frontliner - Tuuduu 12. Noi ...

23
авг
2009

VA - Disco Giants Vol 4 (2009) 2CD [2009, Pop/Dance, MP3]

Формат: MP3, tracks, 320kbps
Год выпуска: 2009
Страна: USA
Жанр: Pop/Dance
Продолжительность: 02:00:45
Описание: CD 1 01. Bar-Kays - Sexomatic (6:24) 02. René & Angela - Save your love for no .1 (5:27) 03. Michael Jonzun - Burnin' up (7:46) 04. Nona Hendryx - Why should I cry? (7:09) 05. Zena Dejonay - I've got to find a way (5:12) 06. Fatback - Is this the future? (6:11) 07. Princess - I'll keep on loving you (7:27) 08. Dayton - The sound of music (X-tended Remix) (8:09) 09. Heatwave - Gangsters of the groove (4:01) 10. Midnight Star - Operator (7:45) CD 2 01. Mary Jane Girls - All nigh ...

26
июн
2014

VA - Songs for Reggae Lovers vol.4 (2CD) [2011, Reggae, FLAC]

Формат: FLAC, (tracks + .cue), lossless
Год выпуска: 2011
Страна: All World
Жанр: Reggae
Продолжительность: 01:53:39
Описание: CD01 00 01 One More Night - Busy Signal 3:24 02 Love Doctor - Romain Virgo 4:17 03 Just the Two of Us - Gappy Ranks 3:48 04 The One You Love - Lukie D 3:55 05 What Will It Take - Jah Cure 3:42 06 Happy Heart - Etana 3:53 07 Nubian Queen - Luciano 4:05 08 Cottage In Negril - Tyrone Taylor 3:55 09 I'm Still Waiting - Delroy Wilson 4:00 10 Love I Can Feel - John Holt 2:56 11 See It In Your Eyes - Don Campbell 3:52 12 Love of a Life Time - Junior Tucker 3:31 13 If I Follow ...

26
сен
2015

VA - Akella Presents: Rockin' Blues Vol. 4 (2CD) [2013, Rockin' Blues, FLAC]

Формат: FLAC, (image + .cue), lossless
Год выпуска: 2013
Страна: All World
Жанр: Rockin' Blues
Продолжительность: 02:39:22
Описание: CD 1 0101. The BEAT DADDYS - Livin' This Love 02. STEVE GANNON - To Through With You 03. MIDNIGHT CREEPERS - Luberta 04. SAVOY BROWN - Bad Shape 05. DEAN HALL - I Know Something Bout the Blues 06. CHIP VANDIVER - Head on Collision 07. GEORGE THOROGOOD - Tail Dragger 08. HYPNOTICS - WomanIzer 09. BIRD DOGS - Bye Bye Baby 10. BILL WHARTON - Swamp Boogie 11. BRYAN LEE - Six String Therapy 12. ROCKY SHELTON - Twist of Fate 13. SCOTT ELLISON - Crowlin' on My Kness 14. ...

12
фев
2013

VA - RockPop - The Best 1978 - 1981 Vol 3 [2013, Rock, DVD5]

Формат: DVD5, DVD Video, MPEG2, AC3
Песня: RockPop - The Best 1978 - 1981 Vol 3
Жанр: Rock
Продолжительность: 01:47:13
Год выпуска: 2013
Видео: 720 x 576 (PAL 4:3) at 25.000 fps, MPEG2 Video at 5582 Kbps, 0.538 bit/pixel
Аудио: Dolby AC3, 2 ch, 192 Kbps, 48.0 KHz
Доп. информация: Треклист 01. Yellow Dog - Little Gods 02. Cheap Trick - Ain't That A Shame 03. Climax Blues Band - I Love You 04. Magnum - Baby Rock Me 05. Dr. Feelgood - Put Him Out Of Your Mind 06. Roxy Music - Oh Yeah 07. Krokus - Heatstrokes 08. Buzzcocks - Everybody's Happy Nowadays 09. Saga - Humble Stance 10. Status Quo - L ...